2 сезон

iTunes

1 сезон

1

iTunes

iTunes

iTunes

1 сезон

RePack

30

ИГРА 18+

pack

ВАЖНО

!!Акция!!

Alien_RageХит недели

RePack

MK11
pack

Забери бонус

RePack

jed

!!Акция!!

Alien_Rage

RePack

fifa19

RePack

Assassins Creed: Odyssey

RePack

NEED FOR SPEED™ PAYBACK

4 сезон

9 сезон

Бесстыжие 9 сезон

Все сериалы

все сериалы на PB.wtf

RePack

FAR CRY 5
  

Люблю отца и сына / Серии: 1-4 из 4 (Мария Маханько) [2020, Мелодрама, WEB-DLRip] pb.wtf

Люблю отца и сына через торрент pb.wtf

Размер: 2.37 GB | Добавлен: 7 мес. назад | Торрент скачан:4 раза
Скачать  

18-03-2020 18:20 Люблю отца и сына Скачать торрент  

Люблю отца и сына Год выпуска: 2020
Страна: Россия
Жанр: Мелодрама
Продолжительность: ~ 00:48:00 серия
Субтитры: отсутствуют

Режиссер: Мария Маханько



В ролях: Ксения Гусева, Алексей Матошин, Артур Сопельник, Алиса Мазурина, Владимир Андриянов

Описание: Студентка Ирина, обаятельная, симпатичная, душа любой компании, у которой нет отбоя от поклонников. Но сердце Ирины молчит до тех пор, пока она не встречается на занятиях по самообороне с харизматичным тренером Алексеем. Пятнадцать лет разницы не смущают Иру, и вот она уже по уши влюбляется в Лешу и мечтает о семье. Но у Алексея другие планы на жизнь, и роман со студенткой в них вписывается лишь мимолетно...

Качество: WEB-DLRip
Формат: AVI

Видео: XviD, ~ 1600 Кбит/с, 720x400, 25 кадр/с
Аудио: AC3, 2 ch, 192 Кбит/с
скриншот  скриншот  скриншот  скриншот  скриншот  

General
Complete name : D:\моё видио\Люблю отца и сына..2020.WEB-DLRip.Files-x\01. Люблю отца и сына..2020.WEB-DLRip.Files-x.avi
Format : AVI
Format/Info : Audio Video Interleave
File size : 613 MiB
Duration : 47mn 33s
Overall bit rate : 1 802 Kbps
Writing application : VirtualDubMod 1.5.10.3 | www.virtualdub-fr.org || (build 2550/release)
Writing library : VirtualDubMod build 2550/release

Video
ID : 0
Format : MPEG-4 Visual
Format profile : Advanced Simple@L5
Format settings, BVOP : 1
Format settings, QPel : No
Format settings, GMC : No warppoints
Format settings, Matrix : Custom
Codec ID : XVID
Codec ID/Hint : XviD
Duration : 47mn 33s
Bit rate : 1 600 Kbps
Width : 720 pixels
Height : 400 pixels
Display aspect ratio : 16:9
Frame rate : 25.000 fps
Color space : YUV
Chroma subsampling : 4:2:0
Bit depth : 8 bits
Scan type : Progressive
Compression mode : Lossy
Bits/(Pixel*Frame) : 0.222
Stream size : 544 MiB (89%)
Writing library : XviD 73

Audio
ID : 1
Format : AC-3
Format/Info : Audio Coding 3
Mode extension : CM (complete main)
Format settings, Endianness : Big
Codec ID : 2000
Duration : 47mn 33s
Bit rate mode : Constant
Bit rate : 192 Kbps
Channel(s) : 2 channels
Channel positions : Front: L R
Sampling rate : 48.0 KHz
Bit depth : 16 bits
Compression mode : Lossy
Stream size : 65.3 MiB (11%)
Alignment : Split accross interleaves
Interleave, duration : 40 ms (1.00 video frame)
Interleave, preload duration : 500 ms

pb.wtf



Скачать Люблю отца и сына через торрент https://i111.fastpic.ru/big/2020/0317/79/7120667ac82432892b20efee6247b379.jpg Скачать фильм Люблю отца и сына через торрент бесплантно в хорошем качестве Описание: Студентка Ирина, обаятельная, симпатичная, душа любой компании, у которой нет отбоя от поклонников. Но сердце Ирины молчит до тех ... 10 10 3
Торрент: Зарегистрирован [2020-03-18 18:20] · скачан: 4 раз
Статус: √ проверено
Размер: 2.37 GB
Как cкачать? Как скачать Люблю отца и сына через торрент | qTorrent

% Раздел Тема Автор DL S | L
Наши сериалы [ 6.81 GB ] Люблю отца и сына / Серии: 1-4 из 4 [2020 Мело WEB-DL 1080p] bober100 Скачать
1 | 0
Наши сериалы [ 4.84 GB ] Люблю отца и сына / Серии: 1-4 из 4 [2020 Мело WEB-DL 720p] bober100 Скачать
1 | 0
Наши сериалы [ 2.36 GB ] Люблю отца и сына / Серии: 1-4 из 4 [2020 Мело WEB-DLRip-AVC] bober100 Скачать
1 | 0
Наши сериалы [ 2.38 GB ] Люблю отца и сына / Серии: 1-4 из 4 [2020 Мело SATRip] bober100 Скачать
1 | 0

28-11-2019 20:33  

Отключить всю рекламу на сайте

    Дорогой пользователь! Огромная просьба, поблагодарите релизера, оцените раздачу и оставьте свои комментарий, если Вы скачали Люблю отца и сына через торрент бесплатно! Внесите свою лепту в развитие PiratBit!
    Комментировать посты могут только пользователи прошедшие не сложную регистрацию
    Показать сообщения:    

    Люблю отца и сына через торрент
    Скачать бесплатно Люблю отца и сына
    Люблю отца и сына скачать торрент
    Люблю отца и сына смотреть онлайн
    Cкачать фильм Люблю отца и сына бесплатно
    Люблю отца и сына скачать торрент в хорошем качестве
    Люблю отца и сына смотреть онлайн бесплатно в хорошем качестве


    Вы не можете начинать темы
    Вы не можете отвечать на сообщения
    Вы не можете редактировать свои сообщения
    Вы не можете удалять свои сообщения
    Вы не можете голосовать в опросах
    Вы не можете прикреплять файлы к сообщениям
    Вы можете скачивать файлы