>

5.6

iTunes

6.1

MVO

5.7

MVO

1

7.4

1 сезон

6.8

iTunes

7.2

1 сезон

13

6.7

1 сезон

8.3

RePack

30

Deluxe

pack

9.9

Лицензия

ВАЖНО

ИГРА 18+

pack

7.3

RePack

MK11

7.7

RePack

jed

7.8

RePack

fifa19

8.5

RePack

RDR2

RePack

NEED FOR SPEED™ PAYBACK

4 сезон

9 сезон

Бесстыжие 9 сезон

Все сериалы

все сериалы на PB.wtf

RePack

FAR CRY 5

Anonymous, доброе утро, мы катастрофически не успеваем собрать деньги на оплату серверов, помогите нам пожалуйста 5,10,15р., для нас важна любая помощь . В качестве благодарности мы отключим Вам всю рекламу на сайте (укажите свой ник в строку Ваше имя)!

×
  
Magnet ссылка

Прекрасный день по соседству / A Beautiful Day in the Neighborhood (Мариэль Хеллер) [2019, драма, биография, BDRip 1080p] MVO [iTunes] +AVO [Назаров] pb.wtf

Прекрасный день по соседству через торрент pb.wtf

Раздают: 1 [ 0 KB/s ]
Размер: 13.27 GB | Добавлен: 1 год 6 мес. назад | Торрент скачан:175 раз
Смотреть онлайн Прекрасный день по соседству | Скачать    Ребята, помогите собрать деньги на оплату серверов!!!

18-03-2020 19:00 Прекрасный день по соседству Скачать торрент  

Прекрасный день по соседству | A Beautiful Day in the Neighborhood
Год выпуска: 2019
Страна: Китай, США
Жанр: драма, биография
Продолжительность: 01:48:45
Перевод:
#1: Профессиональный многоголосый | iTunes
#2: Авторский | Назаров
Субтитры: Русские (Forced, full), украинские (Full), английские, французские

Режиссер: Мариэль Хеллер

rating

В ролях: Том Хэнкс, Мэттью Рис, Крис Купер, Сьюзэн Келечи Уотсон, Марианн Планкетт, Энрико Колантони, Уэнди Маккена, Тэмми Бланчард, Ноа Харпстер, Кармен Кьюсак, Келли Дэвис, Кристин Лати, Мэдди Кормэн, Дэниэл Крелл, Гретхен Кёрнер, Джон Л. Пикок

Описание: История реальной и необычной дружбы между добродушным ведущим Фредом Роджерсом и прожжённым журналистом Томом Джунодом. Джунод неохотно согласился написать статью о знаменитом телеведущем, которого он считает слишком нежным и мягким. Но неутомимый оптимизм Роджерса постепенно меняет жизнь и взгляды сурового репортёра.

Качество: BDRip 1080p
Формат: MKV

Видео: MPEG-4 AVC, 1920x1038, 15.8 Mbit/s, 23.976 fps
Аудио #01: 48 kHz, AC3, 5.1, 384 Kbps | Профессиональный многоголосый | RUS |
Аудио #02: 48 kHz, AC3, 5.1, 640 Kbps | Авторский | RUS |
Аудио #03: 48 kHz, AC3, 5.1, 640 Kbps | Оригинал | ENG |
скриншот  скриншот  скриншот  скриншот  скриншот  

General
Unique ID : 147604494730275219250292066044340462073 (0x6F0B97753DE93388FEFDC0FD0565E1F9)
Complete name : E:Video111A.Beautiful.Day.in.the.Neighborhood.2019.BDRip.1080p.seleZen.mkv
Format : Matroska
Format version : Version 4
File size : 13.3 GiB
Duration : 1 h 48 min
Overall bit rate : 17.5 Mb/s
Movie name : A Beautiful Day in the Neighborhood 2019 from селезень
Encoded date : UTC 2020-03-19 06:38:22
Writing application : mkvmerge v40.0.0 ('Old Town Road + Pony') 64-bit
Writing library : libebml v1.3.9 + libmatroska v1.5.2

Video
ID : 1
Format : AVC
Format/Info : Advanced Video Codec
Format profile : High@L4.1
Format settings : CABAC / 4 Ref Frames
Format settings, CABAC : Yes
Format settings, Reference : 4 frames
Codec ID : V_MPEG4/ISO/AVC
Duration : 1 h 48 min
Bit rate : 15.8 Mb/s
Width : 1 920 pixels
Height : 1 038 pixels
Display aspect ratio : 1.85:1
Frame rate mode : Constant
Frame rate : 23.976 (24000/1001) FPS
Color space : YUV
Chroma subsampling : 4:2:0
Bit depth : 8 bits
Scan type : Progressive
Bits/(Pixel*Frame) : 0.331
Stream size : 12.0 GiB (90%)
Title : LoRD
Writing library : x264 core 159 r2991+49 ~ LoRD
Encoding settings : cabac=1 / ref=4 / deblock=1:-3:-3 / analyse=0x3:0x133 / me=umh / subme=10 / psy=1 / fade_compensate=0.00 / psy_rd=1.08:0.00 / mixed_ref=1 / me_range=32 / chroma_me=1 / trellis=2 / 8x8dct=1 / cqm=0 / deadzone=21,11 / fast_pskip=0 / chroma_qp_offset=-2 / threads=12 / lookahead_threads=2 / sliced_threads=0 / nr=0 / decimate=0 / interlaced=0 / bluray_compat=0 / constrained_intra=0 / fgo=0 / bframes=8 / b_pyramid=2 / b_adapt=2 / b_bias=0 / direct=3 / weightb=1 / open_gop=0 / weightp=2 / keyint=250 / keyint_min=23 / scenecut=40 / intra_refresh=0 / rc_lookahead=60 / rc=2pass / mbtree=0 / bitrate=15800 / ratetol=1.0 / qcomp=0.62 / qpmin=0:0:0 / qpmax=69:69:69 / qpstep=4 / cplxblur=20.0 / qblur=0.5 / vbv_maxrate=62500 / vbv_bufsize=78125 / nal_hrd=none / filler=0 / ip_ratio=1.28 / pb_ratio=1.20 / aq=3:0.72 / aq-sensitivity=10.00 / aq-factor=1.00:1.00:1.00 / aq2=0 / aq3=0
Language : English
Default : Yes
Forced : No

Audio #1
ID : 2
Format : AC-3
Format/Info : Audio Coding 3
Commercial name : Dolby Digital
Codec ID : A_AC3
Duration : 1 h 48 min
Bit rate mode : Constant
Bit rate : 384 kb/s
Channel(s) : 6 channels
Channel layout : L R C LFE Ls Rs
Sampling rate : 48.0 kHz
Frame rate : 31.250 FPS (1536 SPF)
Compression mode : Lossy
Stream size : 299 MiB (2%)
Title : MVO [iTunes]
Language : Russian
Service kind : Complete Main
Default : Yes
Forced : Yes

Audio #2
ID : 3
Format : AC-3
Format/Info : Audio Coding 3
Commercial name : Dolby Digital
Codec ID : A_AC3
Duration : 1 h 48 min
Bit rate mode : Constant
Bit rate : 640 kb/s
Channel(s) : 6 channels
Channel layout : L R C LFE Ls Rs
Sampling rate : 48.0 kHz
Frame rate : 31.250 FPS (1536 SPF)
Compression mode : Lossy
Stream size : 498 MiB (4%)
Title : AVO [Nazarov]
Language : Russian
Service kind : Complete Main
Default : No
Forced : No

Audio #3
ID : 4
Format : AC-3
Format/Info : Audio Coding 3
Commercial name : Dolby Digital
Codec ID : A_AC3
Duration : 1 h 48 min
Bit rate mode : Constant
Bit rate : 640 kb/s
Channel(s) : 6 channels
Channel layout : L R C LFE Ls Rs
Sampling rate : 48.0 kHz
Frame rate : 31.250 FPS (1536 SPF)
Compression mode : Lossy
Stream size : 498 MiB (4%)
Title : Original
Language : English
Service kind : Complete Main
Default : No
Forced : No

Text #1
ID : 5
Format : UTF-8
Codec ID : S_TEXT/UTF8
Codec ID/Info : UTF-8 Plain Text
Duration : 1 h 47 min
Bit rate : 8 b/s
Count of elements : 105
Stream size : 6.62 KiB (0%)
Title : Forced
Language : Russian
Default : Yes
Forced : Yes

Text #2
ID : 6
Format : UTF-8
Codec ID : S_TEXT/UTF8
Codec ID/Info : UTF-8 Plain Text
Duration : 1 h 47 min
Bit rate : 80 b/s
Count of elements : 1262
Stream size : 63.9 KiB (0%)
Title : Full
Language : Russian
Default : No
Forced : No

Text #3
ID : 7
Format : UTF-8
Codec ID : S_TEXT/UTF8
Codec ID/Info : UTF-8 Plain Text
Duration : 1 h 47 min
Bit rate : 79 b/s
Count of elements : 1261
Stream size : 62.5 KiB (0%)
Title : Full
Language : Ukrainian
Default : No
Forced : No

Text #4
ID : 8
Format : UTF-8
Codec ID : S_TEXT/UTF8
Codec ID/Info : UTF-8 Plain Text
Duration : 1 h 43 min
Bit rate : 54 b/s
Count of elements : 1297
Stream size : 41.6 KiB (0%)
Title : Full
Language : English
Default : No
Forced : No

Text #5
ID : 9
Format : UTF-8
Codec ID : S_TEXT/UTF8
Codec ID/Info : UTF-8 Plain Text
Duration : 1 h 47 min
Bit rate : 55 b/s
Count of elements : 1389
Stream size : 43.8 KiB (0%)
Title : SDH
Language : English
Default : No
Forced : No

Text #6
ID : 10
Format : UTF-8
Codec ID : S_TEXT/UTF8
Codec ID/Info : UTF-8 Plain Text
Duration : 1 h 47 min
Bit rate : 46 b/s
Count of elements : 1259
Stream size : 37.1 KiB (0%)
Title : Full
Language : French
Default : No
Forced : No

Menu
00:00:00.000 : en:Chapter 01
00:07:00.128 : en:Chapter 02
00:14:17.231 : en:Chapter 03
00:20:55.838 : en:Chapter 04
00:30:32.748 : en:Chapter 05
00:37:31.040 : en:Chapter 06
00:45:50.581 : en:Chapter 07
00:50:13.636 : en:Chapter 08
00:57:34.451 : en:Chapter 09
01:03:19.462 : en:Chapter 10
01:07:26.834 : en:Chapter 11
01:10:36.983 : en:Chapter 12
01:14:31.133 : en:Chapter 13
01:17:33.482 : en:Chapter 14
01:28:54.621 : en:Chapter 15
01:37:27.925 : en:Chapter 16

pb.wtf



Скачать Прекрасный день по соседству через торрент https://img10.lostpic.net/2020/03/19/25afc47b21c86dfd81ca52cf6b683363.jpg Скачать, смотреть онлайн Прекрасный день по соседству бесплантно в хорошем качестве Описание: История реальной и необычной дружбы между добродушным ведущим Фредом Роджерсом и прожжённым журналистом Томом Джунодом. Джунод ... 10 10 5
Торрент: Зарегистрирован [2020-03-19 07:03] · скачан: 175 раз
Статус: √ проверено
Размер: 13.27 GB
Как cкачать? Как скачать Прекрасный день по соседству через торрент | UTorrent

% Раздел Тема Автор DL S | L
Фильмы [HD 720p, 1080p] (Хороший звук DUB, MVO) [ 6.58 GB ] Прекрасный день по соседству / A Beautiful Day in the Neighborhood [2019 биография BDRip 720p] MVO +AVO [Назаров] bober100 Скачать
2 | 0
Ultra HD (UHD: 2K, 4K, 8K) — видео сверхвысокой чёткости [ 50.61 GB ] Прекрасный день по соседству / A Beautiful Day in the Neighborhood [2019 биография UHD BDRemux 2160p] MVO +AVO [Назаров] bober100 Скачать
1 | 0
Фильмы 2019-2020 [DVDrip, WEB-DLRip, HDrip] (DUB, MVO) [ 1.41 GB ] Прекрасный день по соседству / A Beautiful Day in the Neighborhood [2019 биография BDRip] MVO bober100 Скачать
3 | 0
Фильмы с авторской озвучкой [ 1.46 GB ] Прекрасный день по соседству / A Beautiful Day in the Neighborhood [2019 биография BDRip] AVO [В.Назаров] bober100 Скачать
1 | 0

28-11-2019 20:33  

Отключить всю рекламу на сайте

    Дорогой пользователь! Огромная просьба, поблагодарите релизера, оцените раздачу и оставьте свои комментарий, если Вы скачали Прекрасный день по соседству через торрент бесплатно!
    Комментировать посты могут только пользователи прошедшие не сложную регистрацию
    Показать сообщения:    

    Прекрасный день по соседству через торрент
    Скачать бесплатно Прекрасный день по соседству
    Прекрасный день по соседству скачать торрент
    Прекрасный день по соседству смотреть онлайн
    Cкачать фильм Прекрасный день по соседству бесплатно
    Прекрасный день по соседству скачать торрент в хорошем качестве
    Прекрасный день по соседству смотреть онлайн бесплатно в хорошем качестве


    Вы не можете начинать темы
    Вы не можете отвечать на сообщения
    Вы не можете редактировать свои сообщения
    Вы не можете удалять свои сообщения
    Вы не можете голосовать в опросах
    Вы не можете прикреплять файлы к сообщениям
    Вы можете скачивать файлы