Ссылка на приватное зеркало нашего сайта всего за 1$. Внимание количество ограничено!!!

2 сезон

iTunes

1 сезон

1

iTunes

iTunes

iTunes

1 сезон

RePack

30

ИГРА 18+

pack

ВАЖНО

!!Акция!!

Alien_RageХит недели

RePack

MK11
pack

Забери бонус

RePack

jed

!!Акция!!

Alien_Rage

RePack

fifa19

RePack

Assassins Creed: Odyssey

RePack

NEED FOR SPEED™ PAYBACK

4 сезон

9 сезон

Бесстыжие 9 сезон

Все сериалы

все сериалы на PB.wtf

RePack

FAR CRY 5
  

Проспект обороны / Сезон: 1 / Серии: 1-16 из 16 (Сергей Быстрицкий, Сергей Винокуров) [2020, Драма, спорт, WEBRip] pb.wtf

Проспект обороны через торрент pb.wtf

Размер: 10.06 GB | Добавлен: 6 мес. назад | Торрент скачан:17 раз
Скачать  

18-03-2020 19:29 Проспект обороны Скачать торрент  

Проспект обороны
Год выпуска: 2020
Страна: Россия
Жанр: Драма, спорт
Продолжительность: ~ 00:50:00 серия
Субтитры: отсутствуют

Режиссер: Сергей Быстрицкий, Сергей Винокуров



В ролях: Макар Запорожский, Виктория Романенко, Олег Фомин, Роман Курцын, Кирилл Полухин, Кирилл Варакса, Елена Руфанова, Яков Шамшин, Сергей Кошонин, Наталья Высочанская, Евгений Карпов, Марина Даминева, Глеб Степан Каллистов, Елизавета Бойко, Сергей Воробьёв (IV), Сергей Кореньков, Сергей Колос, Юрий Елагин, Юлия Чесняк, Павел Юринов, Алексей Федькин, Мария Капустинская

Описание: Денис Астахов, молодой амбициозный боксер, срывает бой на звание чемпиона города. Чтобы Денис все-таки смог принять участие в чемпионате, отец Дениса – Александр Астахов - готов дать взятку спортивным чиновникам. Чтобы собрать необходимую сумму, отец отправляет сына на участие в коммерческих боях. Астахов – старший не знает, что Денису там отведена лишь роль статиста. Но Денис привык побеждать, а не ложиться по заказу в третьем раунде. Но главное испытание ждет Дениса впереди – когда он узнает, что его отец и любимая жена Наталья – любовники.

Качество: WEBRip
Формат: AVI

Видео: XviD, ~ 1600 Кбит/с, 720x400
Аудио: AC3, 2 ch, 192 Кбит/с
скриншот  скриншот  скриншот  скриншот  

General
Complete name : F:Проспект обороны.(2019).WEBRip.Files-x1.Проспект обороны.(2019).WEBRip.Files-x.avi
Format : AVI
Format/Info : Audio Video Interleave
File size : 647 MiB
Duration : 50 min 14 s
Overall bit rate : 1 802 kb/s
Writing application : VirtualDubMod 1.5.10.3 | www.virtualdub-fr.org || (build 2550/release)
Writing library : VirtualDubMod build 2550/release

Video
ID : 0
Format : MPEG-4 Visual
Format profile : Advanced Simple@L5
Format settings : BVOP1 / Custom Matrix
Format settings, BVOP : 1
Format settings, QPel : No
Format settings, GMC : No warppoints
Format settings, Matrix : Custom
Codec ID : XVID
Codec ID/Hint : XviD
Duration : 50 min 14 s
Bit rate : 1 600 kb/s
Width : 720 pixels
Height : 400 pixels
Display aspect ratio : 16:9
Frame rate : 25.000 FPS
Color space : YUV
Chroma subsampling : 4:2:0
Bit depth : 8 bits
Scan type : Progressive
Compression mode : Lossy
Bits/(Pixel*Frame) : 0.222
Stream size : 575 MiB (89%)
Writing library : XviD 73

Audio
ID : 1
Format : AC-3
Format/Info : Audio Coding 3
Format settings, Endianness : Big
Codec ID : 2000
Duration : 50 min 14 s
Bit rate mode : Constant
Bit rate : 192 kb/s
Channel(s) : 2 channels
Channel positions : Front: L R
Sampling rate : 48.0 kHz
Frame rate : 31.250 FPS (1536 SPF)
Bit depth : 16 bits
Compression mode : Lossy
Stream size : 69.0 MiB (11%)
Alignment : Split accross interleaves
Interleave, duration : 40 ms (1.00 video frame)
Interleave, preload duration : 500 ms
Service kind : Complete Main

Внимание! Раздача ведётся путём добавления новых серий; при каждом добавлении создаётся новый торрент.
Чтобы начать докачку новой серии, пользователям необходимо сделать следующее:
1. Остановить скачивание;
2. Удалить старый торрент у себя из клиента (старые серии удалять не надо);
3. Скачать новый торрент и запустить его у себя в клиенте вместо старого, при этом указать клиенту путь в старую папку куда и должно происходить скачивание новых серий. Ваш клиент при этом должен произвести хеширование (проверку) старой папки и будет докачивать только те серии, которых у вас ещё нет. Старые серии при этом не удаляются, а продолжают раздаваться! Eсли вы уже удалили старые серии, то предотвратить повторную закачку старых серий можно, отжав галочку в соответствующих местах при запуске нового торрента.

pb.wtf



Скачать Проспект обороны через торрент https://img10.lostpic.net/2020/03/18/d4f61bd532791a5c1183c2bb6ceacb8e.jpg Скачать фильм Проспект обороны через торрент бесплантно в хорошем качестве Описание: Денис Астахов, молодой амбициозный боксер, срывает бой на звание чемпиона города. Чтобы Денис все-таки смог принять участие в ... 10 10 5
Торрент: Зарегистрирован [2020-04-07 00:00] · скачан: 17 раз
Статус: √ проверено
Размер: 10.06 GB
Как cкачать? Как скачать Проспект обороны через торрент | qTorrent

% Раздел Тема Автор DL S | L
Наши сериалы [ 20.64 GB ] Проспект обороны / Сезон: 1 / Серии: 1-16 из 16 [2020 WEBRip 720p] bober100 Скачать
1 | 0
Наши сериалы [ 34.34 GB ] Проспект обороны / Сезон: 1 / Серии: 1-16 из 16 [2020 WEBRip 1080p] bober100 Скачать
1 | 0
Наши сериалы [ 12.25 GB ] Проспект обороны / Сезон: 1 / Серии: 1-16 из 16 [2020 WEBRip-AVC] bober100 Скачать
1 | 0
Наши сериалы [ 10.25 GB ] Проспект обороны / Сезон: 1 / Серии: 1-16 из 16 [2020 SATRip] bober100 Скачать
2 | 0

28-11-2019 20:33  

Отключить всю рекламу на сайте

    Дорогой пользователь! Огромная просьба, поблагодарите релизера, оцените раздачу и оставьте свои комментарий, если Вы скачали Проспект обороны через торрент бесплатно! Внесите свою лепту в развитие PiratBit!
    Комментировать посты могут только пользователи прошедшие не сложную регистрацию
    Показать сообщения:    

    Проспект обороны через торрент
    Скачать бесплатно Проспект обороны
    Проспект обороны скачать торрент
    Проспект обороны смотреть онлайн
    Cкачать фильм Проспект обороны бесплатно
    Проспект обороны скачать торрент в хорошем качестве
    Проспект обороны смотреть онлайн бесплатно в хорошем качестве


    Вы не можете начинать темы
    Вы не можете отвечать на сообщения
    Вы не можете редактировать свои сообщения
    Вы не можете удалять свои сообщения
    Вы не можете голосовать в опросах
    Вы не можете прикреплять файлы к сообщениям
    Вы можете скачивать файлы