2 сезон

iTunes

MVO

1

2 сезон

iTunes

iTunes

1 сезон

RePack

30

Ultimate

ВАЖНО

ИГРА 18+

pack

RePack

MK11
pack

Легкие деньги

RePack

jed

RePack

fifa19

RePack

RDR2

RePack

NEED FOR SPEED™ PAYBACK

4 сезон

9 сезон

Бесстыжие 9 сезон

Все сериалы

все сериалы на PB.wtf

RePack

FAR CRY 5

Anonymous, доброй ночи, мы не успеваем собрать деньги на оплату серверов за декабрь и январь, помогите нам пожалуйста в это трудное время. В качестве благодарности мы отключим Вам всю рекламу на сайте (укажите свой ник в строку Ваше имя)!

×
  
Magnet ссылка

Техасская резня бензопилой: Кожаное лицо / Leatherface (Александр Бустильо, Жюльен Мори) [2017 г., ужасы, триллер, криминал, BDRip, Дубляж (Лицензия)] pb.wtf

Техасская резня бензопилой: Кожаное лицо через торрент pb.wtf

Размер: 1.78 GB | Добавлен: 10 мес. назад | Торрент скачан:36 раз
Скачать  

18-03-2020 20:32 Техасская резня бензопилой: Кожаное лицо Скачать торрент  

Техасская резня бензопилой: Кожаное лицо /
Leatherface
Год выпуска: 2017
Страна: США
Жанр: ужасы, триллер, криминал
Продолжительность: 01:27:42
Перевод: Дубляж (Лицензия)
Субтитры: отсутствуют

Режиссер: Александр Бустильо, Жюльен Мори

Премьера в мире: 25 августа 2017

rating

В ролях: Стивен Дорфф, Ванесса Грасс, Сэм Страйк, Лили Тейлор, Финн Джонс, Сэм Коулман, Джессика Мэдсен, Джеймс Блур, Кристофер Адамсон, Димо Алексиев

Описание: При побеге из лечебницы для душевнобольных, четверо подростков похищают молодую медсестру. В погоню за ними пускается отряд полицейских во главе с техасским рейнджером Хэлом Хартменом, мстительным и беспощадным. Один из беглецов встает на полный трагедий и ужасов путь, который превратит его в маньяка — легенду по имени Кожаное лицо.

Качество: BDRip
Формат: AVI
Видео кодек: XviD
Аудио кодек: AC3
Видео: Xvid, 720х304, ~2455 kbps
Аудио#1: AC3, 6 ch, 448 kbps - Дублированный (Лицензия)
Релиз от: winchester00100010
Общее
Полное имя : C:\Мои раздачи и рипы фильмы сериалы\Leatherface.2017.BDRip.avi
Формат : AVI
Формат/Информация : Audio Video Interleave
Размер файла : 1,78 Гбайт
Продолжительность : 1 ч. 27 м.
Общий поток : 2913 Кбит/сек
Программа кодирования : VirtualDubMod 1.5.10.3 | www.virtualdub-fr.org || (build 2550/release)
Библиотека кодирования : VirtualDubMod build 2550/release

Видео
Идентификатор : 0
Формат : MPEG-4 Visual
Профиль формата : Advanced Simple@L5
Настройки формата : BVOP1 / Custom Matrix
Параметр BVOP формата : 1
Параметр QPel формата : Нет
Параметр GMC формата : Без точки перехода
Параметр матрицы формата : Выборочная
Идентификатор кодека : XVID
Идентификатор кодека/Подсказка : XviD
Продолжительность : 1 ч. 27 м.
Битрейт : 2455 Кбит/сек
Ширина : 720 пикселей
Высота : 304 пикселя
Соотношение сторон : 2,35:1
Частота кадров : 23,976 (24000/1001) кадра/сек
Частота кадров в оригинале : 23,976 (23976/1000) кадра/сек
Цветовое пространство : YUV
Субдискретизация насыщенности : 4:2:0
Битовая глубина : 8 бит
Тип развёртки : Прогрессивная
Метод сжатия : С потерями
Бит/(Пиксели*Кадры) : 0.468
Размер потока : 1,50 Гбайт (84%)
Библиотека кодирования : XviD 73

Аудио
Идентификатор : 1
Формат : AC-3
Формат/Информация : Audio Coding 3
Коммерческое название : Dolby Digital
Идентификатор кодека : 2000
Продолжительность : 1 ч. 27 м.
Вид битрейта : Постоянный
Битрейт : 448 Кбит/сек
Каналы : 6 каналов
ChannelLayout : L R C LFE Ls Rs
Частота : 48,0 КГц
Частота кадров : 31,250 кадров/сек (1536 SPF)
Метод сжатия : С потерями
Размер потока : 281 Мбайт (15%)
Выравнивание : Разделение по промежуткам
Продолжительность промежутка : 42 мс. (1,00 видеокадр)
Время предзагрузки промежутка : 500 мс.
ServiceKind/String : Complete Main

pb.wtf



Скачать Техасская резня бензопилой: Кожаное лицо через торрент https://d.radikal.ru/d25/2003/51/38de846f36bb.jpg Скачать фильм Техасская резня бензопилой: Кожаное лицо через торрент бесплантно в хорошем качестве Описание: При побеге из лечебницы для душевнобольных, четверо подростков похищают молодую медсестру. В погоню за ними пускается отряд ... 10 10 1
Торрент: Зарегистрирован [2020-03-18 21:44] · скачан: 36 раз
Статус: √ проверено
Размер: 1.78 GB
Как cкачать? Как скачать Техасская резня бензопилой: Кожаное лицо через торрент | UTorrent

% Раздел Тема Автор DL S | L
Фильмы [HD 720p, 1080p] (Хороший звук DUB, MVO) [ 4.68 GB ] Техасская резня бензопилой: Кожаное лицо / Leatherface [2017 BDRip 720p] bober100 Скачать
1 | 0
Фильмы [HD 720p, 1080p] (Хороший звук DUB, MVO) [ 8.98 GB ] Техасская резня бензопилой: Кожаное лицо / Leatherface [2017 BDRip 1080p] bober100 Скачать
1 | 0
Фильмы 2017 [DVDrip, WEB-DLRip, HDrip] (DUB, MVO) [ 1.46 GB ] Техасская резня бензопилой: Кожаное лицо / Leatherface [2017 BDRip] - [] Twi7ter Скачать
1 | 0
Фильмы (Blu-ray, BD-Remux, HDDVD) [ 23.59 GB ] Техасская резня бензопилой: Кожаное лицо / Leatherface [2017 BD Remux 1080p] bober100 Скачать
1 | 0
Фильмы 2017 [DVDrip, WEB-DLRip, HDrip] (DUB, MVO) [ 746 MB ] Техасская резня бензопилой: Кожаное лицо / Leatherface [2017 HDRip] bober100 Скачать
1 | 0
Фильмы 2017 [DVDrip, WEB-DLRip, HDrip] (DUB, MVO) [ 1.6 GB ] Техасская резня бензопилой: Кожаное лицо / Leatherface [2017 WEB-DLRip-AVC] bober100 Скачать
1 | 0
Фильмы (WEB-DL 720p, 1080p) [ 2.97 GB ] Техасская резня бензопилой: Кожаное лицо / Leatherface [2017 WEB-DL 720p] bober100 Скачать
2 | 0


Последний раз редактировалось: winchester00100010 (2020-03-18 22:03), всего редактировалось 6 раз(а)

28-11-2019 20:33  

Отключить всю рекламу на сайте


18-03-2020 20:39 Техасская резня бензопилой: Кожаное лицо Скачать торрент  

Топик был перенесен из форума Фильмы 2017 [DVDrip, WEB-DLRip, HDrip] (DUB, MVO) в форум Для поглощённых раздач

Причина переноса: Есть рип с лучшим звуком Техасская резня бензопилой: Кожаное лицо / Leatherface
bober100pb.wtf



    Дорогой пользователь! Огромная просьба, поблагодарите релизера, оцените раздачу и оставьте свои комментарий, если Вы скачали Техасская резня бензопилой: Кожаное лицо через торрент бесплатно! Внесите свою лепту в развитие PiratBit!
    Комментировать посты могут только пользователи прошедшие не сложную регистрацию
    Показать сообщения:    

    Техасская резня бензопилой: Кожаное лицо через торрент
    Скачать бесплатно Техасская резня бензопилой: Кожаное лицо
    Техасская резня бензопилой: Кожаное лицо скачать торрент
    Техасская резня бензопилой: Кожаное лицо смотреть онлайн
    Cкачать фильм Техасская резня бензопилой: Кожаное лицо бесплатно
    Техасская резня бензопилой: Кожаное лицо скачать торрент в хорошем качестве
    Техасская резня бензопилой: Кожаное лицо смотреть онлайн бесплатно в хорошем качестве


    Вы не можете начинать темы
    Вы не можете отвечать на сообщения
    Вы не можете редактировать свои сообщения
    Вы не можете удалять свои сообщения
    Вы не можете голосовать в опросах
    Вы не можете прикреплять файлы к сообщениям
    Вы можете скачивать файлы