Ссылка на приватное зеркало всего за 1$. Внимание количество ограничено!!!

iTunes

iTunes

iTunes

1

iTunes

iTunes

iTunes

iTunes

iTunes

30
pack

Новость дня

ВАЖНО

!!Акция!!

Alien_RageХит недели

RePack

Resident Evil 21

ИГРА 18+

pack

RePack

jed

!!Акция!!

Alien_Rage

RePack

fifa19

RePack

Assassins Creed: Odyssey

RePack

NEED FOR SPEED™ PAYBACK

4 сезон

9 сезон

Бесстыжие 9 сезон

Все сериалы

все сериалы на PB.wtf

RePack

FAR CRY 5
  

Проспект обороны / Сезон: 1 / Серии: 1-16 из 16 (Сергей Быстрицкий, Сергей Винокуров) [2020, Драма, спорт, WEBRip 720p] pb.wtf

Проспект обороны через торрент pb.wtf

Качают: 1 [ 0 KB/s ]
Размер: 20.64 GB | Добавлен: 1 д. 13 ч. назад | Торрент скачан:0 раз
Скачать  

19-03-2020 03:47 Проспект обороны Скачать торрент  

Проспект обороны
Год выпуска: 2020
Страна: Россия
Жанр: Драма, спорт
Продолжительность: ~ 00:50:00 серия
Субтитры: отсутствуют

Режиссер: Сергей Быстрицкий, Сергей Винокуров



В ролях: Макар Запорожский, Виктория Романенко, Олег Фомин, Роман Курцын, Кирилл Полухин, Кирилл Варакса, Елена Руфанова, Яков Шамшин, Сергей Кошонин, Наталья Высочанская, Евгений Карпов, Марина Даминева, Глеб Степан Каллистов, Елизавета Бойко, Сергей Воробьёв (IV), Сергей Кореньков, Сергей Колос, Юрий Елагин, Юлия Чесняк, Павел Юринов, Алексей Федькин, Мария Капустинская

Описание: Денис Астахов, молодой амбициозный боксер, срывает бой на звание чемпиона города. Чтобы Денис все-таки смог принять участие в чемпионате, отец Дениса – Александр Астахов - готов дать взятку спортивным чиновникам. Чтобы собрать необходимую сумму, отец отправляет сына на участие в коммерческих боях. Астахов – старший не знает, что Денису там отведена лишь роль статиста. Но Денис привык побеждать, а не ложиться по заказу в третьем раунде. Но главное испытание ждет Дениса впереди – когда он узнает, что его отец и любимая жена Наталья – любовники.

Качество: WEBRip 720p
Формат: MKV

Видео: 1280х720 (16:9), 25 fps, AVC MPEG-4 (x264), High@L4.1 ~ 3500 kbps avg, 0.152 bit/pixel
Аудио: 48 kHz, AC3, 2 ch, ~ 192 kbps avg
скриншот  скриншот  скриншот  скриншот  

Общее
Уникальный идентификатор : 246526633674145979300993188395266099715 (0xB9774D766B9FEE45A58A0CE71EF04A03)
Полное имя : D:\Prospekt.oborony.2019.WEB-DLRip.(720p).ExKinoRay\Prospekt.oborony.E01.2019.WEB-DLRip.(720p).ExKinoRay.mkv
Формат : Matroska
Версия формата : Version 2
Размер файла : 1,30 Гбайт
Продолжительность : 50 м. 14 с.
Общий поток : 3694 Кбит/сек
Дата кодирования : UTC 2020-03-18 22:21:59
Программа кодирования : mkvmerge v7.8.0 ('River Man') 32bit built on Apr 3 2015 12:11:22
Библиотека кодирования : libebml v1.3.1 + libmatroska v1.4.2

Видео
Идентификатор : 1
Формат : AVC
Формат/Информация : Advanced Video Codec
Профиль формата : High@L4.1
Параметр CABAC формата : Да
Параметр RefFrames формата : 9 кадров
Идентификатор кодека : V_MPEG4/ISO/AVC
Продолжительность : 50 м. 14 с.
Битрейт : 3500 Кбит/сек
Ширина : 1280 пикселей
Высота : 720 пикселей
Соотношение сторон : 16:9
Режим частоты кадров : Постоянный
Частота кадров : 25,000 кадров/сек
Цветовое пространство : YUV
Субдискретизация насыщенности : 4:2:0
Битовая глубина : 8 бит
Тип развёртки : Прогрессивная
Бит/(Пиксели*Кадры) : 0.152
Размер потока : 1,20 Гбайт (93%)
Библиотека кодирования : x264 core 146 r2538 121396c
Настройки программы : cabac=1 / ref=9 / deblock=1:-3:-3 / analyse=0x3:0x113 / me=umh / subme=11 / psy=1 / psy_rd=1.00:0.20 / mixed_ref=1 / me_range=32 / chroma_me=1 / trellis=2 / 8x8dct=1 / cqm=0 / deadzone=21,11 / fast_pskip=1 / chroma_qp_offset=-3 / threads=24 / lookahead_threads=10 / sliced_threads=0 / nr=0 / decimate=0 / interlaced=0 / bluray_compat=0 / constrained_intra=0 / bframes=10 / b_pyramid=2 / b_adapt=2 / b_bias=0 / direct=3 / weightb=1 / open_gop=0 / weightp=2 / keyint=250 / keyint_min=25 / scenecut=40 / intra_refresh=0 / rc_lookahead=60 / rc=2pass / mbtree=1 / bitrate=3500 / ratetol=1.0 / qcomp=0.60 / qpmin=0 / qpmax=69 / qpstep=4 / cplxblur=20.0 / qblur=0.5 / vbv_maxrate=14000 / vbv_bufsize=14000 / nal_hrd=none / filler=0 / ip_ratio=1.40 / aq=3:1.40
Default : Да
Forced : Нет
Цветовой диапазон : Limited
Основные цвета : BT.709
Характеристики трансфера : BT.709
Коэффициенты матрицы : BT.709

Аудио
Идентификатор : 2
Формат : AC-3
Формат/Информация : Audio Coding 3
Расширение режима : CM (complete main)
Параметр Endianness формата : Big
Идентификатор кодека : A_AC3
Продолжительность : 50 м. 14 с.
Вид битрейта : Постоянный
Битрейт : 192 Кбит/сек
Каналы : 2 канала
Расположение каналов : Front: L R
Частота : 48,0 КГц
Частота кадров : 31,250 кадров/сек (1536 spf)
Метод сжатия : С потерями
Размер потока : 69,0 Мбайт (5%)
Default : Да
Forced : Нет

Внимание! Раздача ведётся путём добавления новых серий; при каждом добавлении создаётся новый торрент.
Чтобы начать докачку новой серии, пользователям необходимо сделать следующее:
1. Остановить скачивание;
2. Удалить старый торрент у себя из клиента (старые серии удалять не надо);
3. Скачать новый торрент и запустить его у себя в клиенте вместо старого, при этом указать клиенту путь в старую папку куда и должно происходить скачивание новых серий. Ваш клиент при этом должен произвести хеширование (проверку) старой папки и будет докачивать только те серии, которых у вас ещё нет. Старые серии при этом не удаляются, а продолжают раздаваться! Eсли вы уже удалили старые серии, то предотвратить повторную закачку старых серий можно, отжав галочку в соответствующих местах при запуске нового торрента.

pb.wtf



Скачать Проспект обороны через торрент https://img10.lostpic.net/2020/03/18/d4f61bd532791a5c1183c2bb6ceacb8e.jpg Скачать фильм Проспект обороны через торрент бесплантно в хорошем качестве Описание: Денис Астахов, молодой амбициозный боксер, срывает бой на звание чемпиона города. Чтобы Денис все-таки смог принять участие в ... 9.5 10 4
Торрент: Зарегистрирован [2020-04-06 21:54] · скачан: 0 раз
Статус: √ проверено
Размер: 20.64 GB
Как cкачать? Как скачать Проспект обороны через торрент | qTorrent

% Раздел Тема Автор DL S | L
Наши сериалы [ 34.34 GB ] Проспект обороны / Сезон: 1 / Серии: 1-16 из 16 [2020 WEBRip 1080p] bober100 Скачать
1 | 0
Наши сериалы [ 12.25 GB ] Проспект обороны / Сезон: 1 / Серии: 1-16 из 16 [2020 WEBRip-AVC] bober100 Скачать
1 | 0
Наши сериалы [ 10.06 GB ] Проспект обороны / Сезон: 1 / Серии: 1-16 из 16 [2020 WEBRip] bober100 Скачать
2 | 1
Наши сериалы [ 10.25 GB ] Проспект обороны / Сезон: 1 / Серии: 1-16 из 16 [2020 SATRip] bober100 Скачать
9 | 4


Последний раз редактировалось: bober100 (2020-04-06 21:53), всего редактировалось 5 раз(а)

28-11-2019 20:33  

Отключить всю рекламу на сайте

19-03-2020 05:50 Проспект обороны Скачать торрент  

Прочитал анотацию и можно сериал не смотреть pb.wtf



19-03-2020 12:47 Проспект обороны Скачать торрент  

две серии посмотрел, вроде можно глянуть,для начала неплохо....pb.wtf



25-03-2020 08:13 Проспект обороны Скачать торрент  

странно чемпионат города, а столько пафоса, девочки, журналисты, позирование, вообщем бредово, жаль еще что на главную роль такого выбрали, а так 5 из 10pb.wtf



    Дорогой пользователь! Огромная просьба, поблагодарите релизера, оцените раздачу и оставьте свои комментарий, если Вы скачали Проспект обороны через торрент бесплатно! Внесите свою лепту в развитие PiratBit!
    Комментировать посты могут только пользователи прошедшие не сложную регистрацию
    Показать сообщения:    

    Проспект обороны через торрент
    Скачать бесплатно Проспект обороны
    Проспект обороны скачать торрент
    Проспект обороны смотреть онлайн
    Cкачать фильм Проспект обороны бесплатно
    Проспект обороны скачать торрент в хорошем качестве
    Проспект обороны смотреть онлайн бесплатно в хорошем качестве


    Вы не можете начинать темы
    Вы не можете отвечать на сообщения
    Вы не можете редактировать свои сообщения
    Вы не можете удалять свои сообщения
    Вы не можете голосовать в опросах
    Вы не можете прикреплять файлы к сообщениям
    Вы можете скачивать файлы