Ссылка на приватное зеркало нашего сайта всего за 1$. Внимание количество ограничено!!!

2 сезон

iTunes

1 сезон

1

iTunes

iTunes

iTunes

1 сезон

RePack

30

ИГРА 18+

pack

ВАЖНО

!!Акция!!

Alien_RageХит недели

RePack

MK11
pack

Забери бонус

RePack

jed

!!Акция!!

Alien_Rage

RePack

fifa19

RePack

Assassins Creed: Odyssey

RePack

NEED FOR SPEED™ PAYBACK

4 сезон

9 сезон

Бесстыжие 9 сезон

Все сериалы

все сериалы на PB.wtf

RePack

FAR CRY 5
  

Опекун / Серии: 1-4 из 4 (Сергей Борчуков) [2019, Мелодрама, WEB-DL 720p] pb.wtf

Опекун через торрент pb.wtf

Размер: 4.64 GB | Добавлен: 7 мес. назад | Торрент скачан:9 раз
Скачать  

19-03-2020 06:00 Опекун Скачать торрент  

Опекун
Год выпуска: 2019
Страна: Россия, Украина
Жанр: Мелодрама
Продолжительность: ~ 00:45:00 серия
Субтитры: отсутствуют

Режиссер: Сергей Борчуков

В ролях: Алексей Морозов, Ольга Арнтгольц, Максим Костюнин, Дарья Трегубова, Артём Позняк, Ирина Авдеенко, Светлана Зельбет, Тамара Морозова, Игорь Рубашкин, Мария Трепикова, Олег Замятин

Описание: Ведущий специалист частной стоматологической клиники Алексей Фролов - законченный холостяк, ни одна женщина в его жизни надолго не задерживается. Однажды, возвращаясь с работы домой, он случайно сбивает на дороге известную ведущую и любимицу зрителей Анну Михееву. Женщина находится в больнице в коме и неизвестно, останется ли в живых. И хотя Фролов не виноват, вся его жизнь превращается в кошмар - журналисты снимают разоблачительные репортажи, коллеги по работе осуждают. На одну из передач, посвященную трагедии, приводят сына Анны Димку. Мальчика были вынуждены поместить в детский дом, ведь не нашлось никого, кто бы смог взять его в семью, пока мама в больнице. Фролов обещает помогать Димке и держит слово - уже на следующий день открывает на его имя счет, а спустя время принимает непростое для себя решение – стать опекуном мальчика. Появление в его холостяцкой берлоге Димки рушит привычный уклад жизни Фролова, зато со стороны его поступок выглядит благородно. Но как выстроить искренние отношения, если ребенок винит тебя в том, что случилось с мамой? И как потом, став ему другом и опорой, отдать мальчика отцу, которому тот совсем не нужен?

Качество: WEB-DL 720p
Формат: MKV

Видео: MPEG-4 AVC, ~ 3500 Кбит/с, 1280x720, 25 кадр/с
Аудио: AC3, 2 ch, 192 Кбит/с
скриншот  скриншот  скриншот  скриншот  скриншот  

General
Unique ID : 266727745864642959857635153100634898769 (0xC8A9E530CE33A8669CDA04409678C151)
Complete name : C:01.Опекун.(2019).WEB-DL (720p).by.Nicodem.Files-x.mkv
Format : Matroska
File size : 1.12 GiB
Duration : 44mn 2s
Overall bit rate : 3 654 Kbps
Writing application : Lavf56.36.100
Writing library : Lavf56.36.100

Video
ID : 1
Format : AVC
Format/Info : Advanced Video Codec
Format profile : High@L4.1
Format settings, CABAC : Yes
Format settings, ReFrames : 5 frames
Codec ID : V_MPEG4/ISO/AVC
Duration : 44mn 2s
Bit rate : 3 500 Kbps
Width : 1 280 pixels
Height : 720 pixels
Display aspect ratio : 16:9
Frame rate mode : Variable
Frame rate : 25.000 fps
Color space : YUV
Chroma subsampling : 4:2:0
Bit depth : 8 bits
Scan type : Progressive
Bits/(Pixel*Frame) : 0.152
Stream size : 1.04 GiB (93%)
Writing library : x264 core 148
Encoding settings : cabac=1 / ref=5 / deblock=1:0:0 / analyse=0x3:0x113 / me=hex / subme=8 / psy=1 / psy_rd=1.00:0.00 / mixed_ref=1 / me_range=16 / chroma_me=1 / trellis=2 / 8x8dct=1 / cqm=0 / deadzone=21,11 / fast_pskip=1 / chroma_qp_offset=-2 / threads=22 / lookahead_threads=3 / sliced_threads=0 / nr=0 / decimate=1 / interlaced=0 / bluray_compat=0 / constrained_intra=0 / bframes=3 / b_pyramid=2 / b_adapt=1 / b_bias=0 / direct=3 / weightb=1 / open_gop=0 / weightp=2 / keyint=250 / keyint_min=25 / scenecut=0 / intra_refresh=0 / rc_lookahead=50 / rc=abr / mbtree=1 / bitrate=3500 / ratetol=1.0 / qcomp=0.60 / qpmin=0 / qpmax=69 / qpstep=4 / ip_ratio=1.40 / aq=1:1.00
Language : English

Audio
ID : 2
Format : AC-3
Format/Info : Audio Coding 3
Mode extension : CM (complete main)
Codec ID : A_AC3
Duration : 44mn 2s
Bit rate mode : Constant
Bit rate : 192 Kbps
Channel(s) : 2 channels
Channel positions : Front: L R
Sampling rate : 44.1 KHz
Bit depth : 16 bits
Compression mode : Lossy
Delay relative to video : 1mn 5s
Stream size : 60.5 MiB (5%)
Language : English / un

pb.wtf



Скачать Опекун через торрент https://i90.fastpic.ru/big/2019/0924/26/2efb5a216095569f6e53e59ae9b4dd26.jpg Скачать фильм Опекун через торрент бесплантно в хорошем качестве Описание: Ведущий специалист частной стоматологической клиники Алексей Фролов - законченный холостяк, ни одна женщина в его жизни надолго ... 10 10 2
Торрент: Зарегистрирован [2020-03-19 06:00] · скачан: 9 раз
Статус: √ проверено
Размер: 4.64 GB
Как cкачать? Как скачать Опекун через торрент | qTorrent

% Раздел Тема Автор DL S | L
Наши сериалы [ 2.28 GB ] Опекун / Серии: 1-4 из 4 [2019 Мело WEB-DLRip-AVC] bober100 Скачать
2 | 0
Наши сериалы [ 6.56 GB ] Опекун / Серии: 1-4 из 4 [2019 Мело WEB-DL 1080p] bober100 Скачать
1 | 0
Наши сериалы [ 2.19 GB ] Опекун / Серии: 1-4 из 4 [2019 Мело WEB-DLRip] bober100 Скачать
1 | 0

28-11-2019 20:33  

Отключить всю рекламу на сайте

    Дорогой пользователь! Огромная просьба, поблагодарите релизера, оцените раздачу и оставьте свои комментарий, если Вы скачали Опекун через торрент бесплатно! Внесите свою лепту в развитие PiratBit!
    Комментировать посты могут только пользователи прошедшие не сложную регистрацию
    Показать сообщения:    

    Опекун через торрент
    Скачать бесплатно Опекун
    Опекун скачать торрент
    Опекун смотреть онлайн
    Cкачать фильм Опекун бесплатно
    Опекун скачать торрент в хорошем качестве
    Опекун смотреть онлайн бесплатно в хорошем качестве


    Вы не можете начинать темы
    Вы не можете отвечать на сообщения
    Вы не можете редактировать свои сообщения
    Вы не можете удалять свои сообщения
    Вы не можете голосовать в опросах
    Вы не можете прикреплять файлы к сообщениям
    Вы можете скачивать файлы