Anonymous, добрый вечер, присоединяйтесь к нам в Telegram!, здесь всегда актуальный адрес сайта, оперативная поддержка и многое другое!

>

5.6

iTunes

7.4

iTunes

5.7

MVO

1

7.7

1 сезон

6.8

iTunes

7.3

1 сезон

13

6.7

1 сезон

8.3

RePack

30

ULTIMATE

pack

9.9

Лицензия

ВАЖНО

ИГРА 18+

pack

7.3

RePack

MK11

7.7

RePack

jed

7.8

RePack

fifa19

8.5

RePack

RDR2

RePack

NEED FOR SPEED™ PAYBACK

4 сезон

9 сезон

Бесстыжие 9 сезон

Все сериалы

все сериалы на PB.wtf

RePack

FAR CRY 5

Anonymous, добрый вечер, мы катастрофически не успеваем собрать деньги на оплату серверов, помогите нам пожалуйста 5,10,15р., для нас важна любая помощь . В качестве благодарности мы отключим Вам всю рекламу на сайте (укажите свой ник в строку Ваше имя)!

×
  
Magnet ссылка

Прекрасный день по соседству / A Beautiful Day in the Neighborhood (Мариэль Хеллер) [2019, драма, биография, UHD BDRemux 2160p] MVO [iTunes] +AVO [Назаров] pb.wtf

Прекрасный день по соседству через торрент pb.wtf

Размер: 50.61 GB | Добавлен: 1 год 6 мес. назад | Торрент скачан:64 раза
Смотреть онлайн Прекрасный день по соседству | Скачать    Ребята, помогите собрать деньги на оплату серверов!!!

19-03-2020 07:46 Прекрасный день по соседству Скачать торрент  

Прекрасный день по соседству | A Beautiful Day in the Neighborhood
Год выпуска: 2019
Страна: Китай, США
Жанр: драма, биография
Продолжительность: 01:48:45
Перевод:
#1: Профессиональный многоголосый | iTunes
#2: Авторский | Назаров
Субтитры: Русские (Forced, full), украинские (Full), английские, французские

Режиссер: Мариэль Хеллер

rating

В ролях: Том Хэнкс, Мэттью Рис, Крис Купер, Сьюзэн Келечи Уотсон, Марианн Планкетт, Энрико Колантони, Уэнди Маккена, Тэмми Бланчард, Ноа Харпстер, Кармен Кьюсак, Келли Дэвис, Кристин Лати, Мэдди Кормэн, Дэниэл Крелл, Гретхен Кёрнер, Джон Л. Пикок

Описание: История реальной и необычной дружбы между добродушным ведущим Фредом Роджерсом и прожжённым журналистом Томом Джунодом. Джунод неохотно согласился написать статью о знаменитом телеведущем, которого он считает слишком нежным и мягким. Но неутомимый оптимизм Роджерса постепенно меняет жизнь и взгляды сурового репортёра.

Качество: UHD BDRemux 2160p
Формат: MKV

Видео: 3840x2160 at 23.976 fps, MPEG-H HEVC HDR Video, 55000 kbps avg
Аудио #01: 48 kHz, AC3, 5.1, 384 Kbps | Профессиональный многоголосый | RUS |
Аудио #02: 48 kHz, AC3, 5.1, 640 Kbps | Авторский | RUS |
Аудио #03: 48 kHz, DTS-HD MA, 7.1, 4612 Kbps | Авторский | RUS |
Аудио #04: 48 kHz, DTS-HD MA, 7.1, 5953 Kbps | Оригинал | ENG |
скриншот  скриншот  скриншот  скриншот  скриншот  

General
Unique ID : 315313512857871391205527011344833957532 (0xED372C72E7550677D5346DE821E1CE9C)
Complete name : E:Video111A.Beautiful.Day.in.the.Neighborhood.2019.BDREMUX.2160p.HDR.seleZen.mkv
Format : Matroska
Format version : Version 4
File size : 50.6 GiB
Duration : 1 h 48 min
Overall bit rate mode : Variable
Overall bit rate : 66.6 Mb/s
Movie name : A Beautiful Day in the Neighborhood 2019 4K from селезень
Encoded date : UTC 2020-03-19 07:30:17
Writing application : mkvmerge v40.0.0 ('Old Town Road + Pony') 64-bit
Writing library : libebml v1.3.9 + libmatroska v1.5.2

Video
ID : 1
Format : HEVC
Format/Info : High Efficiency Video Coding
Format profile : Main 10@L5.1@High
HDR format : SMPTE ST 2086, HDR10 compatible
Codec ID : V_MPEGH/ISO/HEVC
Duration : 1 h 48 min
Bit rate : 55.0 Mb/s
Width : 3 840 pixels
Height : 2 160 pixels
Display aspect ratio : 16:9
Frame rate mode : Constant
Frame rate : 23.976 (24000/1001) FPS
Color space : YUV
Chroma subsampling : 4:2:0 (Type 2)
Bit depth : 10 bits
Bits/(Pixel*Frame) : 0.277
Stream size : 41.8 GiB (83%)
Language : English
Default : Yes
Forced : No
Color range : Limited
Color primaries : BT.2020
Transfer characteristics : PQ
Matrix coefficients : BT.2020 non-constant
Mastering display color pri : Display P3
Mastering display luminance : min: 0.0050 cd/m2, max: 4000 cd/m2
Maximum Content Light Level : 1264 cd/m2
Maximum Frame-Average Light : 211 cd/m2

Audio #1
ID : 2
Format : AC-3
Format/Info : Audio Coding 3
Commercial name : Dolby Digital
Codec ID : A_AC3
Duration : 1 h 48 min
Bit rate mode : Constant
Bit rate : 384 kb/s
Channel(s) : 6 channels
Channel layout : L R C LFE Ls Rs
Sampling rate : 48.0 kHz
Frame rate : 31.250 FPS (1536 SPF)
Compression mode : Lossy
Stream size : 299 MiB (1%)
Title : MVO [iTunes]
Language : Russian
Service kind : Complete Main
Default : Yes
Forced : Yes

Audio #2
ID : 3
Format : AC-3
Format/Info : Audio Coding 3
Commercial name : Dolby Digital
Codec ID : A_AC3
Duration : 1 h 48 min
Bit rate mode : Constant
Bit rate : 640 kb/s
Channel(s) : 6 channels
Channel layout : L R C LFE Ls Rs
Sampling rate : 48.0 kHz
Frame rate : 31.250 FPS (1536 SPF)
Compression mode : Lossy
Stream size : 498 MiB (1%)
Title : AVO [Nazarov]
Language : Russian
Service kind : Complete Main
Default : No
Forced : No

Audio #3
ID : 4
Format : DTS XLL
Format/Info : Digital Theater Systems
Commercial name : DTS-HD Master Audio
Codec ID : A_DTS
Duration : 1 h 48 min
Bit rate mode : Variable
Bit rate : 4 612 kb/s
Channel(s) : 8 channels
Channel layout : C L R LFE Lb Rb Lss Rss
Sampling rate : 48.0 kHz
Frame rate : 93.750 FPS (512 SPF)
Bit depth : 24 bits
Compression mode : Lossless
Stream size : 3.50 GiB (7%)
Title : AVO [Nazarov]
Language : Russian
Default : No
Forced : No

Audio #4
ID : 5
Format : DTS XLL
Format/Info : Digital Theater Systems
Commercial name : DTS-HD Master Audio
Codec ID : A_DTS
Duration : 1 h 48 min
Bit rate mode : Variable
Bit rate : 5 953 kb/s
Channel(s) : 8 channels
Channel layout : C L R LFE Lb Rb Lss Rss
Sampling rate : 48.0 kHz
Frame rate : 93.750 FPS (512 SPF)
Bit depth : 24 bits
Compression mode : Lossless
Stream size : 4.52 GiB (9%)
Title : Original
Language : English
Default : No
Forced : No

Text #1
ID : 6
Format : UTF-8
Codec ID : S_TEXT/UTF8
Codec ID/Info : UTF-8 Plain Text
Duration : 1 h 47 min
Bit rate : 8 b/s
Count of elements : 105
Stream size : 6.62 KiB (0%)
Title : Forced
Language : Russian
Default : Yes
Forced : Yes

Text #2
ID : 7
Format : UTF-8
Codec ID : S_TEXT/UTF8
Codec ID/Info : UTF-8 Plain Text
Duration : 1 h 47 min
Bit rate : 80 b/s
Count of elements : 1262
Stream size : 63.9 KiB (0%)
Title : Full
Language : Russian
Default : No
Forced : No

Text #3
ID : 8
Format : UTF-8
Codec ID : S_TEXT/UTF8
Codec ID/Info : UTF-8 Plain Text
Duration : 1 h 47 min
Bit rate : 79 b/s
Count of elements : 1261
Stream size : 62.5 KiB (0%)
Title : Full
Language : Ukrainian
Default : No
Forced : No

Text #4
ID : 9
Format : UTF-8
Codec ID : S_TEXT/UTF8
Codec ID/Info : UTF-8 Plain Text
Duration : 1 h 43 min
Bit rate : 54 b/s
Count of elements : 1297
Stream size : 41.6 KiB (0%)
Title : Full
Language : English
Default : No
Forced : No

Text #5
ID : 10
Format : UTF-8
Codec ID : S_TEXT/UTF8
Codec ID/Info : UTF-8 Plain Text
Duration : 1 h 47 min
Bit rate : 55 b/s
Count of elements : 1389
Stream size : 43.8 KiB (0%)
Title : SDH
Language : English
Default : No
Forced : No

Text #6
ID : 11
Format : UTF-8
Codec ID : S_TEXT/UTF8
Codec ID/Info : UTF-8 Plain Text
Duration : 1 h 47 min
Bit rate : 46 b/s
Count of elements : 1259
Stream size : 37.1 KiB (0%)
Title : Full
Language : French
Default : No
Forced : No

Menu
00:00:00.000 : :Chapter 01
00:07:00.128 : :Chapter 02
00:14:17.231 : :Chapter 03
00:20:55.838 : :Chapter 04
00:30:32.748 : :Chapter 05
00:37:31.040 : :Chapter 06
00:45:50.581 : :Chapter 07
00:50:13.636 : :Chapter 08
00:57:34.451 : :Chapter 09
01:03:19.462 : :Chapter 10
01:07:26.834 : :Chapter 11
01:10:36.983 : :Chapter 12
01:14:31.133 : :Chapter 13
01:17:33.482 : :Chapter 14
01:28:54.621 : :Chapter 15
01:37:27.925 : :Chapter 16

pb.wtf



Скачать Прекрасный день по соседству через торрент https://img10.lostpic.net/2020/03/19/76907185de63fff35d0e9bbc8158d4cf.jpg Скачать, смотреть онлайн Прекрасный день по соседству бесплантно в хорошем качестве Описание: История реальной и необычной дружбы между добродушным ведущим Фредом Роджерсом и прожжённым журналистом Томом Джунодом. Джунод ... 9 10 5
Торрент: Зарегистрирован [2020-03-19 07:46] · скачан: 64 раз
Статус: √ проверено
Размер: 50.61 GB
Как cкачать? Как скачать Прекрасный день по соседству через торрент | UTorrent

% Раздел Тема Автор DL S | L
Фильмы [HD 720p, 1080p] (Хороший звук DUB, MVO) [ 6.58 GB ] Прекрасный день по соседству / A Beautiful Day in the Neighborhood [2019 биография BDRip 720p] MVO +AVO [Назаров] bober100 Скачать
3 | 0
Фильмы 2019-2020 [DVDrip, WEB-DLRip, HDrip] (DUB, MVO) [ 1.41 GB ] Прекрасный день по соседству / A Beautiful Day in the Neighborhood [2019 биография BDRip] MVO bober100 Скачать
1 | 0
Фильмы [HD 720p, 1080p] (Хороший звук DUB, MVO) [ 13.27 GB ] Прекрасный день по соседству / A Beautiful Day in the Neighborhood [2019 биография BDRip 1080p] MVO +AVO [Назаров] bober100 Скачать
1 | 0
Фильмы с авторской озвучкой [ 1.46 GB ] Прекрасный день по соседству / A Beautiful Day in the Neighborhood [2019 биография BDRip] AVO [В.Назаров] bober100 Скачать
1 | 0

28-11-2019 20:33  

Отключить всю рекламу на сайте

    Дорогой пользователь! Огромная просьба, поблагодарите релизера, оцените раздачу и оставьте свои комментарий, если Вы скачали Прекрасный день по соседству через торрент бесплатно!
    Комментировать посты могут только пользователи прошедшие не сложную регистрацию
    Показать сообщения:    

    Прекрасный день по соседству через торрент
    Скачать бесплатно Прекрасный день по соседству
    Прекрасный день по соседству скачать торрент
    Прекрасный день по соседству смотреть онлайн
    Cкачать фильм Прекрасный день по соседству бесплатно
    Прекрасный день по соседству скачать торрент в хорошем качестве
    Прекрасный день по соседству смотреть онлайн бесплатно в хорошем качестве


    Вы не можете начинать темы
    Вы не можете отвечать на сообщения
    Вы не можете редактировать свои сообщения
    Вы не можете удалять свои сообщения
    Вы не можете голосовать в опросах
    Вы не можете прикреплять файлы к сообщениям
    Вы можете скачивать файлы