Ссылка на приватное зеркало нашего сайта всего за 1$. Внимание количество ограничено!!!

2 сезон

iTunes

1 сезон

1

2 сезон

2 сезон

iTunes

1 сезон

RePack

30

Новинка

ВАЖНО

ИГРА 18+

pack

RePack

MK11
pack

Забери бонус

RePack

jed

!!Акция!!

Alien_Rage

RePack

fifa19

RePack

Assassins Creed: Odyssey

RePack

NEED FOR SPEED™ PAYBACK

4 сезон

9 сезон

Бесстыжие 9 сезон

Все сериалы

все сериалы на PB.wtf

RePack

FAR CRY 5
  

Акулы / Los tiburones (Лусия Гарибальди) [2019, Драма, WEB-DL 1080p] DUB [iTunes] pb.wtf

Акулы через торрент pb.wtf

Раздают: 1 [ 0 KB/s ]
Размер: 2.93 GB | Добавлен: 8 мес. назад | Торрент скачан:58 раз
Скачать  

19-03-2020 18:27 Акулы Скачать торрент  

Акулы | Los tiburones
Год выпуска: 2019
Страна: Уругвай, Аргентина, Испания
Студия: Montelona Cine, Nephilim Producciones, Trapecio Cine
Жанр: Драма
Продолжительность: 01:18:59
Перевод: Дублированный | iTunes
Субтитры: отсутствуют

Режиссер: Лусия Гарибальди

rating

В ролях: Ромина Бентанкур, Федерико Морозини, Фабиан Аренильяс, Антонелла Аквистапаче, Валерия Луис, Бруно Перейра, Хорхе Портильо

Описание: Небольшой пляжный город держит в страхе новость об акулах, появившихся в океане. Пока все остальные паникуют и не рискуют проводить время в тёплых волнах океана, 14-летняя Розина начинает кружить вокруг своей собственной добычи, поскольку её сильное влечение к молодому человеку старше её, растёт с каждым днём.

Качество: WEB-DL 1080p
Формат: MKV

Видео: MPEG-4 AVC, ~ 5120 Kb/s, 1920x800
Аудио: Russian: 48 kHz, AC3 Dolby Digital, 2/0 (L,R) ch, ~192 kbps
скриншот  скриншот  скриншот  скриншот  

General
Unique ID : 231558249187064522299148919193954121571 (0xAE347F210AA6A7789C30127E33EB7763)
Complete name : Akulyi.2019.WEB-DL.1080p.ELEKTRI4KA.UNIONGANG.mkv
Format : Matroska
Format version : Version 4 / Version 2
File size : 2.93 GiB
Duration : 1 h 19 min
Overall bit rate : 5 307 kb/s
Movie name : ELEKTRI4KA.UNIONGANG
Encoded date : UTC 2020-03-18 23:42:52
Writing application : mkvmerge v8.3.0 ('Over the Horizon') 64bit
Writing library : libebml v1.3.1 + libmatroska v1.4.2

Video
ID : 1
Format : AVC
Format/Info : Advanced Video Codec
Format profile : High@L4
Format settings, CABAC : Yes
Format settings, ReFrames : 4 frames
Codec ID : V_MPEG4/ISO/AVC
Duration : 1 h 19 min
Bit rate : 5 120 kb/s
Width : 1 920 pixels
Height : 800 pixels
Display aspect ratio : 2.40:1
Frame rate mode : Constant
Frame rate : 24.000 FPS
Color space : YUV
Chroma subsampling : 4:2:0
Bit depth : 8 bits
Scan type : Progressive
Bits/(Pixel*Frame) : 0.139
Stream size : 2.82 GiB (96%)
Writing library : x264 core 148
Encoding settings : cabac=1 / ref=3 / deblock=1:0:0 / analyse=0x3:0x113 / me=hex / subme=7 / psy=1 / psy_rd=1.00:0.00 / mixed_ref=1 / me_range=16 / chroma_me=1 / trellis=1 / 8x8dct=1 / cqm=0 / deadzone=21,11 / fast_pskip=1 / chroma_qp_offset=-2 / threads=25 / lookahead_threads=4 / sliced_threads=0 / nr=0 / decimate=1 / interlaced=0 / bluray_compat=0 / constrained_intra=0 / bframes=6 / b_pyramid=2 / b_adapt=1 / b_bias=0 / direct=1 / weightb=1 / open_gop=0 / weightp=2 / keyint=48 / keyint_min=25 / scenecut=0 / intra_refresh=0 / rc_lookahead=40 / rc=2pass / mbtree=1 / bitrate=5120 / ratetol=1.0 / qcomp=0.60 / qpmin=0 / qpmax=69 / qpstep=4 / cplxblur=20.0 / qblur=0.5 / vbv_maxrate=7680 / vbv_bufsize=20480 / nal_hrd=none / filler=0 / ip_ratio=1.40 / aq=1:1.00
Language : English
Default : Yes
Forced : No

Audio
ID : 2
Format : AC-3
Format/Info : Audio Coding 3
Mode extension : CM (complete main)
Format settings, Endianness : Big
Codec ID : A_AC3
Duration : 1 h 19 min
Bit rate mode : Constant
Bit rate : 192 kb/s
Channel(s) : 2 channels
Channel positions : Front: L R
Sampling rate : 48.0 kHz
Frame rate : 31.250 FPS (1536 spf)
Bit depth : 16 bits
Compression mode : Lossy
Stream size : 109 MiB (4%)
Title : iTunes
Language : Russian
Default : Yes
Forced : No

pb.wtf



Скачать Акулы через торрент https://i2.imageban.ru/out/2020/03/19/a7a5eef9e6442d30153cad4c92d0c8e6.png Скачать фильм Акулы через торрент бесплантно в хорошем качестве Описание: Небольшой пляжный город держит в страхе новость об акулах, появившихся в океане. Пока все остальные паникуют и не рискуют ... 10 10 4
Торрент: Зарегистрирован [2020-03-19 18:27] · скачан: 58 раз
Статус: √ проверено
Размер: 2.93 GB
Как cкачать? Как скачать Акулы через торрент | qTorrent

28-11-2019 20:33  

Отключить всю рекламу на сайте

    Дорогой пользователь! Огромная просьба, поблагодарите релизера, оцените раздачу и оставьте свои комментарий, если Вы скачали Акулы через торрент бесплатно! Внесите свою лепту в развитие PiratBit!
    Комментировать посты могут только пользователи прошедшие не сложную регистрацию
    Показать сообщения:    

    Акулы через торрент
    Скачать бесплатно Акулы
    Акулы скачать торрент
    Акулы смотреть онлайн
    Cкачать фильм Акулы бесплатно
    Акулы скачать торрент в хорошем качестве
    Акулы смотреть онлайн бесплатно в хорошем качестве


    Вы не можете начинать темы
    Вы не можете отвечать на сообщения
    Вы не можете редактировать свои сообщения
    Вы не можете удалять свои сообщения
    Вы не можете голосовать в опросах
    Вы не можете прикреплять файлы к сообщениям
    Вы можете скачивать файлы