1 сезон

1 сезон

iTunes

1

КиноПоиск HD

Кинопоиск HD

iTunes

13

1 сезон

RePack

30

Ultimate

ВАЖНО

ИГРА 18+

pack

RePack

MK11
pack

Легкие деньги

RePack

jed

RePack

fifa19

RePack

RDR2

RePack

NEED FOR SPEED™ PAYBACK

4 сезон

9 сезон

Бесстыжие 9 сезон

Все сериалы

все сериалы на PB.wtf

RePack

FAR CRY 5
  
Magnet ссылка

Пила: Игра на выживание / Saw (Джеймс Ван) [2004 г., ужасы, триллер, детектив, BDRip, Дубляж] [Director's Cut] pb.wtf

Пила: Игра на выживание через торрент pb.wtf

Размер: 2.18 GB | Добавлен: 1 год 1 мес. назад | Торрент скачан:14 раз
Скачать  

19-03-2020 19:15 Пила: Игра на выживание Скачать торрент  

Пила: Игра на выживание /
Saw
Год выпуска: 2004
Страна: США
Жанр: ужасы, триллер, детектив
Продолжительность: 01:42:46
Перевод: Дубляж
Субтитры: отсутствуют

Режиссер: Джеймс Ван

Премьера в мире: 19 января 2004

rating

В ролях: Ли Уоннелл, Кэри Элвис, Дэнни Гловер, Моника Поттер, Тобин Белл, Дина Мейер, Кен Люн, Майкл Эмерсон, Шоуни Смит, Бенито Мартинес и др.

Описание: Двое незнакомцев просыпаются в странном подвальном помещении. В центре помещения — труп мужчины с простреленной головой и оружием в ослабевшей руке. Они же прикованы к стенам цепями за щиколотки. Оба не знают, как там оказались.
Путём нехитрых предположений и спрятанных вокруг них ответов, как частей какого-то паззла, они узнают, по крайней мере, зачем они здесь и что именно от них ждёт их Похититель. Голос с найденной плёнки бесстрастно вещает: «Если ты хочешь спасти свою жену и детей, убей другого». Убить другого можно, только дотянувшись до оружия.
Дотянуться до оружия нельзя иначе, как избавившись от цепи. Избавиться от цепи нельзя иначе, кроме как отпилив ногу. Времени — мало. Но достаточно, чтобы реконструировать цепочку странных событий, которые привели каждого из них туда, где они сейчас оказались…

Качество: BDRip
Формат: AVI
Видео кодек: XviD
Аудио кодек: AC3
Видео: Xvid, 720х400, ~2582 kbps
Аудио#1: AC3, 6 ch, 448 kbps - русский дубляж
Релиз от: winchester00100010
Общее
Полное имя : C:\Мои раздачи и рипы фильмы сериалы\Пила Saw коллекция\Saw.2004.Directors.Cut.BDRip.avi
Формат : AVI
Формат/Информация : Audio Video Interleave
Профиль формата : OpenDML
Размер файла : 2,18 Гбайт
Продолжительность : 1 ч. 42 м.
Общий поток : 3042 Кбит/сек
Программа кодирования : VirtualDubMod 1.5.10.2 (build 2542/release)
Библиотека кодирования : VirtualDubMod build 2542/release

Видео
Идентификатор : 0
Формат : MPEG-4 Visual
Профиль формата : Advanced Simple@L5
Настройки формата : BVOP1 / Custom Matrix
Параметр BVOP формата : 1
Параметр QPel формата : Нет
Параметр GMC формата : Без точки перехода
Параметр матрицы формата : Выборочная
Идентификатор кодека : XVID
Идентификатор кодека/Подсказка : XviD
Продолжительность : 1 ч. 42 м.
Битрейт : 2582 Кбит/сек
Ширина : 720 пикселей
Высота : 400 пикселей
Соотношение сторон : 16:9
Частота кадров : 23,976 (24000/1001) кадра/сек
Частота кадров в оригинале : 23,976 (23976/1000) кадра/сек
Цветовое пространство : YUV
Субдискретизация насыщенности : 4:2:0
Битовая глубина : 8 бит
Тип развёртки : Прогрессивная
Метод сжатия : С потерями
Бит/(Пиксели*Кадры) : 0.374
Размер потока : 1,85 Гбайт (85%)
Библиотека кодирования : XviD 73

Аудио
Идентификатор : 1
Формат : AC-3
Формат/Информация : Audio Coding 3
Коммерческое название : Dolby Digital
Идентификатор кодека : 2000
Продолжительность : 1 ч. 42 м.
Вид битрейта : Постоянный
Битрейт : 448 Кбит/сек
Каналы : 6 каналов
ChannelLayout : L R C LFE Ls Rs
Частота : 48,0 КГц
Частота кадров : 31,250 кадров/сек (1536 SPF)
Метод сжатия : С потерями
Размер потока : 329 Мбайт (15%)
Выравнивание : Разделение по промежуткам
Продолжительность промежутка : 42 мс. (1,00 видеокадр)
Время предзагрузки промежутка : 500 мс.
ServiceKind/String : Complete Main

pb.wtf



Скачать Пила: Игра на выживание через торрент https://c.radikal.ru/c31/2003/dd/593be3203c04.jpg Скачать фильм Пила: Игра на выживание через торрент бесплантно в хорошем качестве Описание: Двое незнакомцев просыпаются в странном подвальном помещении. В центре помещения — труп мужчины с простреленной головой и оружием ... 5 10 1
Торрент: Зарегистрирован [2020-03-19 19:15] · скачан: 14 раз
Статус: √ проверено
Размер: 2.18 GB
Как cкачать? Как скачать Пила: Игра на выживание через торрент | UTorrent

% Раздел Тема Автор DL S | L
Фильмы [HD 720p, 1080p] (Хороший звук DUB, MVO) [ 4.38 GB ] Пила: Игра на выживание / Saw [2004 BDRip 720p ] [Director's Cut] winchester00100010 Скачать
1 | 0
Фильмы (Blu-ray, BD-Remux, HDDVD) [ 32.69 GB ] Пила: Игра на Выживание / Saw [2004 Blu-ray ] Бумер Скачать
1 | 0

28-11-2019 20:33  

Отключить всю рекламу на сайте

    Дорогой пользователь! Огромная просьба, поблагодарите релизера, оцените раздачу и оставьте свои комментарий, если Вы скачали Пила: Игра на выживание через торрент бесплатно! Внесите свою лепту в развитие PiratBit!
    Комментировать посты могут только пользователи прошедшие не сложную регистрацию
    Показать сообщения:    

    Пила: Игра на выживание через торрент
    Скачать бесплатно Пила: Игра на выживание
    Пила: Игра на выживание скачать торрент
    Пила: Игра на выживание смотреть онлайн
    Cкачать фильм Пила: Игра на выживание бесплатно
    Пила: Игра на выживание скачать торрент в хорошем качестве
    Пила: Игра на выживание смотреть онлайн бесплатно в хорошем качестве


    Вы не можете начинать темы
    Вы не можете отвечать на сообщения
    Вы не можете редактировать свои сообщения
    Вы не можете удалять свои сообщения
    Вы не можете голосовать в опросах
    Вы не можете прикреплять файлы к сообщениям
    Вы можете скачивать файлы