2 сезон

iTunes

MVO

1

2 сезон

iTunes

iTunes

1 сезон

RePack

30

Ultimate

ВАЖНО

ИГРА 18+

pack

RePack

MK11
pack

Легкие деньги

RePack

jed

RePack

fifa19

RePack

RDR2

RePack

NEED FOR SPEED™ PAYBACK

4 сезон

9 сезон

Бесстыжие 9 сезон

Все сериалы

все сериалы на PB.wtf

RePack

FAR CRY 5

Anonymous, добрый день, мы не успеваем собрать деньги на оплату серверов за декабрь и январь, помогите нам пожалуйста в это трудное время. В качестве благодарности мы отключим Вам всю рекламу на сайте (укажите свой ник в строку Ваше имя)!

×
  
Magnet ссылка

Чёрный понедельник / Black Monday / Сезон: 2 / Серии: 1-10 из 10 (Пэймэн Бенц) [2020, Комедия, WEB-DL 1080p] MVO [AlexFilm] pb.wtf

Чёрный понедельник через торрент pb.wtf

Раздают: 1 [ 0 KB/s ]
Размер: 21.37 GB | Добавлен: 6 мес. назад | Торрент скачан:16 раз
Скачать  

19-03-2020 19:34 Чёрный понедельник Скачать торрент  

Чёрный понедельник | Black Monday
Год выпуска: 2020
Страна: США
Жанр: Комедия
Продолжительность: ~ 00:30:00
Перевод: Профессиональный (многоголосый закадровый) | AlexFilm
Субтитры: Английские (Full, SDH)

Режиссёр: Пэймэн Бенц

В ролях: Дон Чидл, Эндрю Рэннеллс, Пол Шир, Реджина Холл, Юджин Кордеро, Кадим Хардисон, Курт Браунолер, Эдвин Гэйджиано

Описание: После «Черного понедельника» — 19 октября 1987 года, когда произошел крупнейший обвал фондового рынка в истории Уолл-стрит, группа финансистов-любителей находит способ заработать на этом, в одночасье превратив свою унылую жизнь в сплошной праздник.

rating

Качество: WEB-DL 1080p
Формат: MKV

Видео: MPEG-4 AVC, ~ 9500 Кбит/с, 1920x1080
Аудио 1: 48 kHz, AC3, 6 ch, 384 kbps | AlexFilm
Аудио 2: 48 kHz, E-AC3, 6 ch, 640 kbps | Original
скриншот  скриншот  скриншот  скриншот  

Общее
Уникальный идентификатор : 225096804411243536661418401575740398331 (0xA958114E3E4D7D9E97889606CEAC5AFB)
Полное имя : D:Black_Monday_(s02)_AlexFilm_1080p\Black.Monday.2020.S02E01.Mixie-Dixie.1080p.AMZN.WEB-DL.DD5.1.x264-monkee_EniaHD.mkv
Формат : Matroska
Версия формата : Version 2
Размер файла : 2,36 Гбайт
Продолжительность : 31 м. 50 с.
Общий поток : 10,6 Мбит/сек
Дата кодирования : UTC 2020-03-19 19:19:35
Программа кодирования : mkvmerge v4.9.1 ('Ich will') сборка от Jul 11 2011 23:53:15
Библиотека кодирования : libebml v1.2.1 + libmatroska v1.1.1

Видео
Идентификатор : 1
Формат : AVC
Формат/Информация : Advanced Video Codec
Профиль формата : High@L4
Параметр CABAC формата : Да
Параметр RefFrames формата : 4 кадра
Идентификатор кодека : V_MPEG4/ISO/AVC
Вид битрейта : Постоянный
Битрейт : 9486 Кбит/сек
Номинальный битрейт : 10000 Кбит/сек
Ширина : 1920 пикселей
Высота : 1080 пикселей
Соотношение сторон : 16:9
Режим частоты кадров : Переменный
Частота кадров в оригинале : 23,976 кадра/сек
Цветовое пространство : YUV
Субдискретизация насыщенности : 4:2:0
Битовая глубина : 8 бит
Тип развёртки : Прогрессивная
Бит/(Пиксели*Кадры) : 0.201
Заголовок : Release by EniaHD
Default : Да
Forced : Нет
Цветовой диапазон : Limited
Основные цвета : BT.709
Характеристики трансфера : BT.709
Коэффициенты матрицы : BT.709

Аудио #1
Идентификатор : 2
Формат : AC-3
Формат/Информация : Audio Coding 3
Расширение режима : CM (complete main)
Параметр Endianness формата : Big
Идентификатор кодека : A_AC3
Продолжительность : 31 м. 50 с.
Вид битрейта : Постоянный
Битрейт : 384 Кбит/сек
Каналы : 6 каналов
Расположение каналов : Front: L C R, Side: L R, LFE
Частота : 48,0 КГц
Частота кадров : 31,250 кадров/сек (1536 spf)
Метод сжатия : С потерями
Размер потока : 87,5 Мбайт (4%)
Заголовок : AlexFilm
Язык : Russian
Default : Да
Forced : Нет

Аудио #2
Идентификатор : 3
Формат : AC-3
Формат/Информация : Audio Coding 3
Расширение режима : CM (complete main)
Параметр Endianness формата : Big
Идентификатор кодека : A_AC3
Продолжительность : 31 м. 50 с.
Вид битрейта : Постоянный
Битрейт : 640 Кбит/сек
Каналы : 6 каналов
Расположение каналов : Front: L C R, Side: L R, LFE
Частота : 48,0 КГц
Частота кадров : 31,250 кадров/сек (1536 spf)
Метод сжатия : С потерями
Размер потока : 146 Мбайт (6%)
Язык : English
Default : Нет
Forced : Нет

Текст #1
Идентификатор : 4
Формат : UTF-8
Идентификатор кодека : S_TEXT/UTF8
Идентификатор кодека/Информация : UTF-8 Plain Text
Заголовок : Full
Язык : English
Default : Нет
Forced : Нет

Текст #2
Идентификатор : 5
Формат : UTF-8
Идентификатор кодека : S_TEXT/UTF8
Идентификатор кодека/Информация : UTF-8 Plain Text
Заголовок : SDH
Язык : English
Default : Нет
Forced : Нет

Когда раздача ведётся путём добавления новых серий, при каждом добавлении создётся новый торрент. Чтобы начать докачку новой серии, пользователям необходимо сделать следующее:
(1) остановить скачивание,
(2) удалить старый торрент у себя из клиента (старые серии удалять не надо),
(3) скачать новый торрент и запустить его у себя в клиенте вместо старого, при этом указать клиенту путь в старую папку, куда и должно происходить скачивание новых серий.
Ваш клиент при этом должен произвести хеширование (проверку) старой папки (если не производит сам - помогите ему сделать это), и будет докачивать только те серии, которых у вас ещё нет. Старые серии при этом не удаляются, а продолжают раздаваться!
Eсли вы уже удалили старые серии, то предотвратить повторную закачку старых серий можно, отжав галочку в соответсвующих местах при запуске нового торрента. По возможности, желательно не удалять старые серии как можно дольше, чтобы релизёр не столько продолжал раздавать старые серии, а смог сконцентрироваться на новых.

pb.wtf



Скачать Чёрный понедельник через торрент https://d.radikal.ru/d32/2003/79/bbf1c97dc172.jpg Скачать фильм Чёрный понедельник через торрент бесплантно в хорошем качестве Описание: После «Черного понедельника» — 19 октября 1987 года, когда произошел крупнейший обвал фондового рынка в истории Уолл-стрит, ... 10 10 3
Торрент: Зарегистрирован [2020-07-20 03:12] · скачан: 16 раз
Статус: √ проверено
Размер: 21.37 GB
Как cкачать? Как скачать Чёрный понедельник через торрент | UTorrent

% Раздел Тема Автор DL S | L
Зарубежные сериалы [ 13.1 GB ] Чёрный понедельник / Black Monday / Сезон: 2 / Серии: 1-10 из 10 [2020 WEB-DL 720p] MVO [AlexFilm] bober100 Скачать
1 | 0
Зарубежные сериалы [ 2.68 GB ] Чёрный понедельник / Black Monday / Сезон: 2 / Серии: 1-2 из 10 [2020 WEB-DL 720p] [MVO] killermax2013 Скачать
1 | 0
Зарубежные сериалы [ 22.51 GB ] Чёрный понедельник / Black Monday / Сезон: 2 / Серии: 1-10 из 10 [2020 WEB-DL 1080p] [MVO] killermax2013 Скачать
2 | 0

28-11-2019 20:33  

Отключить всю рекламу на сайте

    Дорогой пользователь! Огромная просьба, поблагодарите релизера, оцените раздачу и оставьте свои комментарий, если Вы скачали Чёрный понедельник через торрент бесплатно! Внесите свою лепту в развитие PiratBit!
    Комментировать посты могут только пользователи прошедшие не сложную регистрацию
    Показать сообщения:    

    Чёрный понедельник через торрент
    Скачать бесплатно Чёрный понедельник
    Чёрный понедельник скачать торрент
    Чёрный понедельник смотреть онлайн
    Cкачать фильм Чёрный понедельник бесплатно
    Чёрный понедельник скачать торрент в хорошем качестве
    Чёрный понедельник смотреть онлайн бесплатно в хорошем качестве


    Вы не можете начинать темы
    Вы не можете отвечать на сообщения
    Вы не можете редактировать свои сообщения
    Вы не можете удалять свои сообщения
    Вы не можете голосовать в опросах
    Вы не можете прикреплять файлы к сообщениям
    Вы можете скачивать файлы