Всегда рабочее зеркало без VPN и Proxy просто перед .vidak.icu напиши любое слово или цифру, Пример http://b004.vidak.icu

MVO

Лицензия

1 сезон

1

1 сезон

iTunes

1 сезон

13

1 сезон

Deluxe

pack

Рекомендуем

Пиратка

30

ВАЖНО

RePack

MK11

RePack

jed

RePack

fifa19

RePack

RDR2

RePack

NEED FOR SPEED™ PAYBACK

Кинопоиск HD

6 сезон

 Острые козырьки 6 сезон

Все сериалы

все сериалы на PB.wtf

RePack

FAR CRY 5
  
Magnet ссылка

Стендапер по жизни / Standing Up, Falling Down (Мэтт Рэтнер) [2019, Драма, комедия, WEB-DL 1080p ] DUB [iTunes] pb.wtf

Стендапер по жизни через торрент pb.wtf

Размер: 5.29 GB | Добавлен: 2 года 3 мес. назад | Торрент скачан:143 раза
Смотреть онлайн Стендапер по жизни | Скачать    Ребята, помогите собрать деньги на оплату серверов!!!

20-03-2020 07:07 Стендапер по жизни Скачать торрент  

Стендапер по жизни | Standing Up, Falling Down
Год выпуска: 2019
Страна: США
Студия: Tilted Windmill Productions, Whitewater Films, Mangano Movies & Media
Жанр: Драма, комедия
Продолжительность: 01:31:17
Перевод: Дублированный | iTunes
Субтитры: Русские (Full), английские

Режиссер: Мэтт Рэтнер

rating

В ролях: Билли Кристал, Бен Шварц, Элоиза Мамфорд, Грэйс Гаммер, Нэйт Корддри, Джилл Хеннесси, Кэйтлин МакГи, Дэвид Кастанеда, Леонард Оузтс, Джон Белманн

Описание: Не сумев добиться успеха в Лос-Анджелесе, немолодой комик вынужден вернуться домой на Лонг-Айленд. По воле случая он знакомится с обаятельным, но пьющим дерматологом, тоже переживающим жизненный кризис. Найдя друг в друге отдушину, они начинают вместе карабкаться наверх…

Качество: WEB-DL 1080p
Формат: MKV

Видео: MPEG-4 AVC, 1920x960, 7278 Kbit/s, 23.976 fps
Аудио #01: 48 kHz, AC3, 5.1, 384 Kbps | iTunes | RUS |
Аудио #02: 48 kHz, E-AC3, 5.1, 640 Kbps | Оригинал | ENG |
скриншот  скриншот  скриншот  скриншот  скриншот  

General
Unique ID : 88168020398398566422741449254246532583 (0x42548B0620DF2A51EA4C82493CEFC5E7)
Complete name : E:Video111Standing.Up.Falling.Down.2019.AMZN.WEB-DL.1080p.seleZen.mkv
Format : Matroska
Format version : Version 4
File size : 5.29 GiB
Duration : 1 h 31 min
Overall bit rate : 8 302 kb/s
Movie name : Standing Up Falling Down 2019 from селезень
Encoded date : UTC 2020-03-20 06:55:43
Writing application : mkvmerge v40.0.0 ('Old Town Road + Pony') 64-bit
Writing library : libebml v1.3.9 + libmatroska v1.5.2

Video
ID : 1
Format : AVC
Format/Info : Advanced Video Codec
Format profile : High@L4
Format settings : CABAC / 4 Ref Frames
Format settings, CABAC : Yes
Format settings, Reference : 4 frames
Codec ID : V_MPEG4/ISO/AVC
Duration : 1 h 31 min
Bit rate mode : Constant
Bit rate : 7 278 kb/s
Nominal bit rate : 10 000 kb/s
Width : 1 920 pixels
Height : 960 pixels
Display aspect ratio : 2.000
Frame rate mode : Constant
Frame rate : 23.976 (24000/1001) FPS
Color space : YUV
Chroma subsampling : 4:2:0
Bit depth : 8 bits
Scan type : Progressive
Bits/(Pixel*Frame) : 0.165
Stream size : 4.64 GiB (88%)
Language : English
Default : Yes
Forced : No
Color range : Limited
Color primaries : BT.709
Transfer characteristics : BT.709
Matrix coefficients : BT.709

Audio #1
ID : 2
Format : AC-3
Format/Info : Audio Coding 3
Commercial name : Dolby Digital
Codec ID : A_AC3
Duration : 1 h 31 min
Bit rate mode : Constant
Bit rate : 384 kb/s
Channel(s) : 6 channels
Channel layout : L R C LFE Ls Rs
Sampling rate : 48.0 kHz
Frame rate : 31.250 FPS (1536 SPF)
Compression mode : Lossy
Stream size : 251 MiB (5%)
Title : iTunes
Language : Russian
Service kind : Complete Main
Default : Yes
Forced : Yes

Audio #2
ID : 3
Format : E-AC-3
Format/Info : Enhanced AC-3
Commercial name : Dolby Digital Plus
Codec ID : A_EAC3
Duration : 1 h 31 min
Bit rate mode : Constant
Bit rate : 640 kb/s
Channel(s) : 6 channels
Channel layout : L R C LFE Ls Rs
Sampling rate : 48.0 kHz
Frame rate : 31.250 FPS (1536 SPF)
Compression mode : Lossy
Stream size : 418 MiB (8%)
Title : Original
Language : English
Service kind : Complete Main
Default : No
Forced : No

Text #1
ID : 4
Format : UTF-8
Codec ID : S_TEXT/UTF8
Codec ID/Info : UTF-8 Plain Text
Duration : 1 h 27 min
Bit rate : 139 b/s
Count of elements : 1977
Stream size : 89.2 KiB (0%)
Title : Full
Language : Russian
Default : No
Forced : No

Text #2
ID : 5
Format : UTF-8
Codec ID : S_TEXT/UTF8
Codec ID/Info : UTF-8 Plain Text
Duration : 1 h 30 min
Bit rate : 92 b/s
Count of elements : 2078
Stream size : 61.2 KiB (0%)
Title : Full
Language : English
Default : No
Forced : No

Text #3
ID : 6
Format : UTF-8
Codec ID : S_TEXT/UTF8
Codec ID/Info : UTF-8 Plain Text
Duration : 1 h 30 min
Bit rate : 94 b/s
Count of elements : 2165
Stream size : 63.1 KiB (0%)
Title : SDH
Language : English
Default : No
Forced : No

pb.wtf



Скачать Стендапер по жизни через торрент https://img10.lostpic.net/2020/03/20/03465537238d7e5b701a728e92d3b477.jpg Скачать, смотреть онлайн Стендапер по жизни бесплантно в хорошем качестве Описание: Не сумев добиться успеха в Лос-Анджелесе, немолодой комик вынужден вернуться домой на Лонг-Айленд. По воле случая он знакомится с ... 8.5 10 6
Торрент: Зарегистрирован [2020-03-20 07:07] · скачан: 143 раз
Статус: √ проверено
Размер: 5.29 GB
Как cкачать? Как скачать Стендапер по жизни через торрент | UTorrent

% Раздел Тема Автор DL S | L
Фильмы [HD 720p, 1080p] (Хороший звук DUB, MVO) [ 8.84 GB ] Стендапер по жизни / Standing Up Falling Down [2019 BDRip 1080p] bober100 Скачать
1 | 0
Фильмы 2019-2020 [DVDrip, WEB-DLRip, HDrip] (DUB, MVO) [ 1.45 GB ] Стендапер по жизни / Standing Up Falling Down [2019 WEB-DLRip-AVC] от MediaBit Lithuania Скачать
1 | 0
Фильмы 2019-2020 [DVDrip, WEB-DLRip, HDrip] (DUB, MVO) [ 1.42 GB ] Стендапер по жизни / Standing Up Falling Down [2019 BDRip] - Twi7ter Скачать
1 | 0
Фильмы 2019-2020 [DVDrip, WEB-DLRip, HDrip] (DUB, MVO) [ 1.42 GB ] Стендапер по жизни / Standing Up Falling Down [2019 BDRip] bober100 Скачать
1 | 0

28-11-2019 20:33  

Отключить всю рекламу на сайте

    Дорогой пользователь! Огромная просьба, поблагодарите релизера, оцените раздачу и оставьте свои комментарий, если Вы скачали Стендапер по жизни через торрент бесплатно!
    Комментировать посты могут только пользователи прошедшие не сложную регистрацию
    Показать сообщения:    

    Стендапер по жизни через торрент
    Скачать бесплатно Стендапер по жизни
    Стендапер по жизни скачать торрент
    Стендапер по жизни смотреть онлайн
    Cкачать фильм Стендапер по жизни бесплатно
    Стендапер по жизни скачать торрент в хорошем качестве
    Стендапер по жизни смотреть онлайн бесплатно в хорошем качестве


    Вы не можете начинать темы
    Вы не можете отвечать на сообщения
    Вы не можете редактировать свои сообщения
    Вы не можете удалять свои сообщения
    Вы не можете голосовать в опросах
    Вы не можете прикреплять файлы к сообщениям
    Вы можете скачивать файлы