Всегда рабочее зеркало без VPN и Proxy просто перед .vidak.icu напиши любое слово или цифру, Пример http://c7m8.vidak.icu

MVO

Лицензия

1 сезон

1

1 сезон

iTunes

1 сезон

13

1 сезон

Deluxe

pack

Рекомендуем

Repack

30

ВАЖНО

RePack

MK11

RePack

jed

RePack

fifa19

RePack

RDR2

RePack

NEED FOR SPEED™ PAYBACK

Кинопоиск HD

6 сезон

 Острые козырьки 6 сезон

Все сериалы

все сериалы на PB.wtf

RePack

FAR CRY 5
  
Magnet ссылка

Письмо королю / The Letter for the King / Сезон: 1 / Серии: 1-6 из 6 (Алекс Холмс, Чарльз Мартин, Феликс Томпсон) [2020, Нидерланды, фэнтези, боевик, приключения, семейный., WEB-DLRip] Dub (Невафильм) pb.wtf

Письмо королю через торрент pb.wtf

Размер: 3.97 GB | Добавлен: 2 года 3 мес. назад | Торрент скачан:222 раза
Смотреть онлайн Письмо королю | Скачать    Ребята, помогите собрать деньги на оплату серверов!!!

20-03-2020 16:39 Письмо королю Скачать торрент  

Письмо королю / The Letter for the King Год выпуска: 2020
Страна: Нидерланды
Жанр: фэнтези, боевик, приключения, семейный
Продолжительность: ~ 00:51:00

Перевод: Профессиональный (дублированный) Невафильм

Режиссёр: Алекс Холмс, Чарльз Мартин, Феликс Томпсон

В ролях: Амир Уилсон, Хайс Блом, Руби Эшборн Серкис, Натаниэль Сале, Таддеа Грэм, Ислам Буакказ, Джек Бартон, Питер Фердинандо, Джона Лис, Тауфик Бархом

Описание: Действие сериала «Письмо королю» разворачивается в вымышленном средневековом мире. Молодой оруженосец Тьюри берется за ответственное и необычное задание: ему предстоит пройти через три королевства, чтобы лично вручить Королю секретное письмо. Выполняя эту ответственную миссию, Тьюри попадает в эпические и опасные приключения и вскоре осознает, что в его руках оказалась судьба целого королевства.

rating

Качество: WEB-DLRip
Формат: AVI
Видео: XviD, 720x304, 23,976 fps, ~ 1600 kbps
Аудио 1: 48 kHz, AC3 2 ch, ~192 kbps|Невафильм|
Аудио 2: 48 kHz, AC3 2 ch, ~192 kbps
Субтитры: Русские (Forced, Full), английские (SDH)

Реклама: Отсутствует

Format : AVI
Format/Info : Audio Video Interleave
File size : 730 MiB
Duration : 51mn 4s
Overall bit rate : 1 998 Kbps
Movie name : Письмо королю 1х01: Собираются грозовые тучи
Director : Бёдвар (WEB-DLRip)
Writing application : VirtualDubModRus 1.5.10.2 (build 2542/release)
Comment : 20.03.2020

Video
ID : 0
Format : MPEG-4 Visual
Format profile : Advanced [email protected]
Format settings, BVOP : 1
Format settings, QPel : No
Format settings, GMC : No warppoints
Format settings, Matrix : Default (MPEG)
Codec ID : XVID
Codec ID/Hint : XviD
Duration : 51mn 4s
Bit rate : 1 600 Kbps
Width : 720 pixels
Height : 304 pixels
Display aspect ratio : 2.40:1
Frame rate : 23.976 (24000/1001) fps
Color space : YUV
Chroma subsampling : 4:2:0
Bit depth : 8 bits
Scan type : Progressive
Compression mode : Lossy
Bits/(Pixel*Frame) : 0.305
Stream size : 584 MiB (80%)
Writing library : XviD 67

Audio #1
ID : 1
Format : AC-3
Format/Info : Audio Coding 3
Mode extension : CM (complete main)
Format settings, Endianness : Big
Codec ID : 2000
Duration : 51mn 4s
Bit rate mode : Constant
Bit rate : 192 Kbps
Channel(s) : 2 channels
Channel positions : Front: L R
Sampling rate : 48.0 KHz
Frame rate : 31.250 fps (1536 spf)
Compression mode : Lossy
Stream size : 70.2 MiB (10%)
Alignment : Split accross interleaves
Interleave, duration : 42 ms (1.00 video frame)
Interleave, preload duratio : 500 ms
Title : Nevafilm (rus)

Audio #2
ID : 2
Format : AC-3
Format/Info : Audio Coding 3
Mode extension : CM (complete main)
Format settings, Endianness : Big
Codec ID : 2000
Duration : 51mn 4s
Bit rate mode : Constant
Bit rate : 192 Kbps
Channel(s) : 2 channels
Channel positions : Front: L R
Sampling rate : 48.0 KHz
Frame rate : 31.250 fps (1536 spf)
Compression mode : Lossy
Stream size : 70.2 MiB (10%)
Alignment : Split accross interleaves
Interleave, duration : 42 ms (1.00 video frame)
Interleave, preload duratio : 500 ms
Title : Original (eng)
скриншот  скриншот  скриншот  
pb.wtf



Скачать Письмо королю через торрент https://i111.fastpic.ru/big/2020/0320/b6/9b3784090ab6c641e36f7cddceafc9b6.jpg Скачать, смотреть онлайн Письмо королю бесплантно в хорошем качестве Описание: Действие сериала «Письмо королю» разворачивается в вымышленном средневековом мире. Молодой оруженосец Тьюри берется за ... 9.3 10 7
Торрент: Зарегистрирован [2020-03-20 16:39] · скачан: 222 раз
Статус: √ проверено
Размер: 3.97 GB
Как cкачать? Как скачать Письмо королю через торрент | UTorrent

% Раздел Тема Автор DL S | L
Зарубежные сериалы [ 14.61 GB ] Письмо королю / The Letter for the King / Сезон: 1 / Серии: 1-6 из 6 [2020 WEBRip 1080p] MVO [TVShows] bober100 Скачать
1 | 0
Зарубежные сериалы [ 7.72 GB ] Письмо королю / The Letter for the King / Сезон: 1 / Серии: 1-6 из 6 [2020 WEBRip 720p] MVO [TVShows] bober100 Скачать
1 | 0
Зарубежные сериалы [ 15.12 GB ] Письмо королю / The Letter for the King / Сезон: 1 / Серии: 1-6 из 6 [2020 WEB-DL 1080p] killermax2013 Скачать
1 | 0


Последний раз редактировалось: killermax2013 (2020-03-20 19:29), всего редактировалось 1 раз

28-11-2019 20:33  

Отключить всю рекламу на сайте

    Дорогой пользователь! Огромная просьба, поблагодарите релизера, оцените раздачу и оставьте свои комментарий, если Вы скачали Письмо королю через торрент бесплатно!
    Комментировать посты могут только пользователи прошедшие не сложную регистрацию
    Показать сообщения:    

    Письмо королю через торрент
    Скачать бесплатно Письмо королю
    Письмо королю скачать торрент
    Письмо королю смотреть онлайн
    Cкачать фильм Письмо королю бесплатно
    Письмо королю скачать торрент в хорошем качестве
    Письмо королю смотреть онлайн бесплатно в хорошем качестве


    Вы не можете начинать темы
    Вы не можете отвечать на сообщения
    Вы не можете редактировать свои сообщения
    Вы не можете удалять свои сообщения
    Вы не можете голосовать в опросах
    Вы не можете прикреплять файлы к сообщениям
    Вы можете скачивать файлы