2 сезон

iTunes

MVO

1

2 сезон

iTunes

iTunes

1 сезон

RePack

30

Новинка

ВАЖНО

ИГРА 18+

pack

RePack

MK11
pack

Легкие деньги

RePack

jed

RePack

fifa19

RePack

RDR2

RePack

NEED FOR SPEED™ PAYBACK

4 сезон

9 сезон

Бесстыжие 9 сезон

Все сериалы

все сериалы на PB.wtf

RePack

FAR CRY 5

Anonymous, добрый день, мы не успеваем собрать деньги на оплату серверов за декабрь и январь, помогите нам пожалуйста в это трудное время. В качестве благодарности мы отключим Вам всю рекламу на сайте (укажите свой ник в строку Ваше имя)!

×
  
Magnet ссылка

Корабль-призрак / Ghost Ship (Стив Бек) [2002 г., Ужасы, триллер, приключения, BDRip 720p / 60 FPS, Дубляж] от R.G. HD-Films pb.wtf

Корабль-призрак через торрент pb.wtf

Размер: 3.16 GB | Добавлен: 10 мес. назад | Торрент скачан:100 раз
Скачать  

21-03-2020 13:55 Корабль-призрак Скачать торрент  

Корабль-призрак / Ghost Ship
Год выпуска: 2002
Страна: США, Австралия
Жанр: Ужасы, триллер, приключения
Продолжительность: 01:30:43
Перевод: Дубляж
Субтитры: Russian, English

Режиссер: Стив Бек

Бюджет: $20 000 000
Премьера в мире: 22 октября 2002

rating

В ролях: Гэбриэл Бирн, Джулианна Маргулис, Рон Элдард, Десмонд Харрингтон, Айзэйя Вашингтон, Алекс Димитриадес, Карл Урбан, Эмили Браунинг, Франческа Реттондини

Описание: В Беринговом море было замечено крупное судно, не подающее никаких признаков жизни. К загадочной находке отправилась команда морских спасателей под руководством капитана Мерфи. На месте выяснилось, что это — итальянский пассажирский лайнер «Антониа Граза», символ роскоши и богатства, бесследно исчезнувший 40 лет назад. Поднявшись на борт, команда Мерфи нашла ящики с золотыми слитками. Но это не единственный сюрприз, который приготовил незваным гостям наводящий ужас корабль. Его трюмы таят беспощадное зло, повсюду витают призраки погибших пассажиров, а за дверью каждой каюты поджидает смерть…

Качество: BDRip 720p / 60 FPS
Формат: MKV
Видео кодек: H.264
Аудио кодек: AC3
Видео: x264, 1280 x 720 ( 16:9 ), 4602 kbps, 60,000 fps, ( 0.083 bpp)
Аудио#1: Русский, AC-3, 48.0 KHz, 6 ch, 384 Kbps ( Dub )
Релиз от:

скриншот   скриншот   скриншот   скриншот   скриншот   скриншот  Автор рипа: slaventi-69
x264 [info]: frame I:2200 Avg QP:14.64 size: 90467
x264 [info]: frame P:78090 Avg QP:17.61 size: 21883
x264 [info]: frame B:245988 Avg QP:20.25 size: 4962
x264 [info]: consecutive B-frames: 3.1% 2.6% 7.4% 12.4% 67.8% 6.8%

Общее
Уникальный идентификатор : 315199203135774007438743154856091729933 (0xED21288B5EBBBEB83692EBFAD3EC400D)
Полное имя : F:\Ghost.Ship.(2002).BDRip.720p.(60 Fps).mkv
Формат : Matroska
Версия формата : Version 4
Размер файла : 3,16 Гбайт
Продолжительность : 1 ч. 30 м.
Общий поток : 4988 Кбит/сек
Название фильма : Корабль-призрак / Ghost Ship (2002) BDRip 720p (60 Fps)
Дата кодирования : UTC 2020-03-19 10:25:40
Программа кодирования : mkvmerge v42.0.0 ('Overtime') 64-bit
Библиотека кодирования : libebml v1.3.10 + libmatroska v1.5.2

Видео
Идентификатор : 1
Формат : AVC
Формат/Информация : Advanced Video Codec
Профиль формата : High@L4.1
Настройки формата : CABAC / 8 Ref Frames
Параметр CABAC формата : Да
Параметр RefFrames формата : 8 кадров
Идентификатор кодека : V_MPEG4/ISO/AVC
Продолжительность : 1 ч. 30 м.
Битрейт : 4602 Кбит/сек
Ширина : 1280 пикселей
Высота : 720 пикселей
Соотношение сторон : 16:9
Режим частоты кадров : Постоянный
Частота кадров : 60,000 кадров/сек
Цветовое пространство : YUV
Субдискретизация насыщенности : 4:2:0
Битовая глубина : 8 бит
Тип развёртки : Прогрессивная
Бит/(Пиксели*Кадры) : 0.083
Размер потока : 2,91 Гбайт (92%)
Заголовок : slaventi-69 ( R.G. HD-Films | 60 fps )
Библиотека кодирования : x264 core 130 r2273 b3065e6
Настройки программы : cabac=1 / ref=8 / deblock=1:-1:-1 / analyse=0x3:0x133 / me=umh / subme=9 / psy=1 / psy_rd=1.00:0.00 / mixed_ref=1 / me_range=26 / chroma_me=1 / trellis=2 / 8x8dct=1 / cqm=0 / deadzone=21,11 / fast_pskip=0 / chroma_qp_offset=-2 / threads=6 / lookahead_threads=4 / sliced_threads=0 / nr=0 / decimate=1 / interlaced=0 / bluray_compat=0 / constrained_intra=0 / bframes=5 / b_pyramid=2 / b_adapt=2 / b_bias=0 / direct=3 / weightb=1 / open_gop=0 / weightp=2 / keyint=250 / keyint_min=25 / scenecut=40 / intra_refresh=0 / rc_lookahead=50 / rc=crf / mbtree=1 / crf=16.3 / qcomp=0.60 / qpmin=0 / qpmax=69 / qpstep=4 / ip_ratio=1.40 / aq=1:1.00
Язык : English
Default : Да
Forced : Нет

Аудио
Идентификатор : 2
Формат : AC-3
Формат/Информация : Audio Coding 3
Коммерческое название : Dolby Digital
Идентификатор кодека : A_AC3
Продолжительность : 1 ч. 30 м.
Вид битрейта : Постоянный
Битрейт : 384 Кбит/сек
Каналы : 6 каналов
Channel layout : L R C LFE Ls Rs
Частота : 48,0 КГц
Частота кадров : 31,250 кадров/сек (1536 SPF)
Битовая глубина : 16 бит
Метод сжатия : С потерями
Размер потока : 249 Мбайт (8%)
Заголовок : DUB
Язык : Russian
ServiceKind/String : Complete Main
Default : Да
Forced : Нет

Текст #1
Идентификатор : 3
Формат : UTF-8
Идентификатор кодека : S_TEXT/UTF8
Идентификатор кодека/Информация : UTF-8 Plain Text
Продолжительность : 1 ч. 25 м.
Битрейт : 55 бит/сек
ElementCount : 770
Размер потока : 35,0 Кбайт (0%)
Заголовок : русский
Язык : Russian
Default : Нет
Forced : Нет

Текст #2
Идентификатор : 4
Формат : UTF-8
Идентификатор кодека : S_TEXT/UTF8
Идентификатор кодека/Информация : UTF-8 Plain Text
Продолжительность : 1 ч. 30 м.
Битрейт : 41 бит/сек
ElementCount : 743
Размер потока : 27,6 Кбайт (0%)
Заголовок : английский (для слабослышащих)
Default : Нет
Forced : Нет

Просьба к переливающим на другие сайты, в оформлении указывайте пожалуйста авторство группы R.G. HD-Films pb.wtf



Скачать Корабль-призрак через торрент http://i6.imageban.ru/out/2018/07/06/9463286a00589db4fbda16ccef9c282c.png Скачать фильм Корабль-призрак через торрент бесплантно в хорошем качестве Описание: В Беринговом море было замечено крупное судно, не подающее никаких признаков жизни. К загадочной находке отправилась команда ... 9.8 10 10
Торрент: Зарегистрирован [2020-03-21 13:55] · скачан: 100 раз
Статус: √ проверено
Размер: 3.16 GB
Как cкачать? Как скачать Корабль-призрак через торрент | UTorrent

28-11-2019 20:33  

Отключить всю рекламу на сайте

21-03-2020 17:29 Корабль-призрак Скачать торрент  

Спасибо большое за фильм! Забираю в коллекцию.pb.wtf



23-03-2020 16:14 Корабль-призрак Скачать торрент  

спасибо большое!pb.wtf



    Дорогой пользователь! Огромная просьба, поблагодарите релизера, оцените раздачу и оставьте свои комментарий, если Вы скачали Корабль-призрак через торрент бесплатно! Внесите свою лепту в развитие PiratBit!
    Комментировать посты могут только пользователи прошедшие не сложную регистрацию
    Показать сообщения:    

    Корабль-призрак через торрент
    Скачать бесплатно Корабль-призрак
    Корабль-призрак скачать торрент
    Корабль-призрак смотреть онлайн
    Cкачать фильм Корабль-призрак бесплатно
    Корабль-призрак скачать торрент в хорошем качестве
    Корабль-призрак смотреть онлайн бесплатно в хорошем качестве


    Вы не можете начинать темы
    Вы не можете отвечать на сообщения
    Вы не можете редактировать свои сообщения
    Вы не можете удалять свои сообщения
    Вы не можете голосовать в опросах
    Вы не можете прикреплять файлы к сообщениям
    Вы можете скачивать файлы