Ссылка на приватное зеркало нашего сайта всего за 1$. Внимание количество ограничено!!!

2 сезон

iTunes

1 сезон

1

2 сезон

2 сезон

iTunes

1 сезон

RePack

30

Новинка

ВАЖНО

ИГРА 18+

pack

RePack

MK11
pack

Забери бонус

RePack

jed

!!Акция!!

Alien_Rage

RePack

fifa19

RePack

Assassins Creed: Odyssey

RePack

NEED FOR SPEED™ PAYBACK

4 сезон

9 сезон

Бесстыжие 9 сезон

Все сериалы

все сериалы на PB.wtf

RePack

FAR CRY 5
  

Так близко к горизонту / Dem Horizont so nah (Тим Трахте) [2019, драма, мелодрама, BD Remux 1080p] DUB (rus, ukr) [iTunes] pb.wtf

Так близко к горизонту через торрент pb.wtf

Размер: 31 GB | Добавлен: 8 мес. назад | Торрент скачан:10 раз
Скачать  

21-03-2020 15:34 Так близко к горизонту Скачать торрент  

Так близко к горизонту | Dem Horizont so nah
Год выпуска: 2019
Страна: Германия, Франция
Студия: Pantaleon Films, SevenPictures Film, Studio Canal
Жанр: драма, мелодрама
Продолжительность: 01:57:12
Перевод: Дублированный | iTunes
Субтитры: Русские (Full)

Режиссер: Тим Трахте

rating

В ролях: Луна Ведлер, Янник Шуманн, Луиза Бефорт, Джэйми Бик, Юлия Айбер, Никола Грюндель, Генри Хорн, Кристин Хунольд, Штефан Кампвирт, Фредерик Лау

Описание: Они встретились друг с другом на рассвете своей взрослой жизни, когда чувства побеждают страх и преодолевают любые преграды. Молодые и влюбленные - они проводят вместе каждую секунду. Однако любовь с первого взгляда не может длиться вечно, и на это есть серьезная причина...

Качество: BD Remux 1080p
Формат: MKV

Видео: MPEG-4 AVC, 1920x1080, 33.4 Mbit/s, 24.000 fps
Аудио #01: 48 kHz, AC3, 5.1, 384 Kbps | iTunes | RUS |
Аудио #02: 48 kHz, AC3, 5.1, 384 Kbps | iTunes | UKR |
Аудио #03: 48 kHz, DTS-HD MA, 5.1, 3680 Kbps | Оригинал | GER |
скриншот  скриншот  скриншот  скриншот  скриншот  

General
Unique ID : 206704226935975802124469624978871952396 (0x9B81C9392DF881BF6A2094FEA800240C)
Complete name : E:Video111Dem.Horizont.so.nah.2019.BDREMUX.1080p.seleZen.mkv
Format : Matroska
Format version : Version 4
File size : 31.0 GiB
Duration : 1 h 57 min
Overall bit rate mode : Variable
Overall bit rate : 37.9 Mb/s
Movie name : Dem Horizont so nah 2019 from селезень
Encoded date : UTC 2020-03-20 15:14:34
Writing application : mkvmerge v40.0.0 ('Old Town Road + Pony') 64-bit
Writing library : libebml v1.3.9 + libmatroska v1.5.2

Video
ID : 1
Format : AVC
Format/Info : Advanced Video Codec
Format profile : High@L4.1
Format settings : CABAC / 4 Ref Frames
Format settings, CABAC : Yes
Format settings, Reference : 4 frames
Codec ID : V_MPEG4/ISO/AVC
Duration : 1 h 57 min
Bit rate mode : Variable
Bit rate : 33.4 Mb/s
Maximum bit rate : 38.0 Mb/s
Width : 1 920 pixels
Height : 1 080 pixels
Display aspect ratio : 16:9
Frame rate mode : Constant
Frame rate : 24.000 FPS
Color space : YUV
Chroma subsampling : 4:2:0
Bit depth : 8 bits
Scan type : Progressive
Bits/(Pixel*Frame) : 0.672
Stream size : 27.4 GiB (88%)
Language : German
Default : Yes
Forced : No

Audio #1
ID : 2
Format : AC-3
Format/Info : Audio Coding 3
Commercial name : Dolby Digital
Codec ID : A_AC3
Duration : 1 h 57 min
Bit rate mode : Constant
Bit rate : 384 kb/s
Channel(s) : 6 channels
Channel layout : L R C LFE Ls Rs
Sampling rate : 48.0 kHz
Frame rate : 31.250 FPS (1536 SPF)
Compression mode : Lossy
Stream size : 322 MiB (1%)
Title : iTunes
Language : Russian
Service kind : Complete Main
Default : Yes
Forced : Yes

Audio #2
ID : 3
Format : AC-3
Format/Info : Audio Coding 3
Commercial name : Dolby Digital
Codec ID : A_AC3
Duration : 1 h 57 min
Bit rate mode : Constant
Bit rate : 384 kb/s
Channel(s) : 6 channels
Channel layout : L R C LFE Ls Rs
Sampling rate : 48.0 kHz
Frame rate : 31.250 FPS (1536 SPF)
Compression mode : Lossy
Stream size : 322 MiB (1%)
Title : iTunes
Language : Ukrainian
Service kind : Complete Main
Default : No
Forced : No

Audio #3
ID : 4
Format : DTS XLL
Format/Info : Digital Theater Systems
Commercial name : DTS-HD Master Audio
Codec ID : A_DTS
Duration : 1 h 57 min
Bit rate mode : Variable
Bit rate : 3 680 kb/s
Channel(s) : 6 channels
Channel layout : C L R Ls Rs LFE
Sampling rate : 48.0 kHz
Frame rate : 93.750 FPS (512 SPF)
Bit depth : 24 bits
Compression mode : Lossless
Stream size : 3.01 GiB (10%)
Title : Original
Language : German
Default : No
Forced : No

Text
ID : 5
Format : UTF-8
Codec ID : S_TEXT/UTF8
Codec ID/Info : UTF-8 Plain Text
Duration : 1 h 51 min
Bit rate : 58 b/s
Count of elements : 960
Stream size : 47.5 KiB (0%)
Title : Full
Language : Russian
Default : No
Forced : No

Menu
00:00:00.000 : de:Глава 01
00:11:47.625 : de:Глава 02
00:21:49.375 : de:Глава 03
00:30:45.333 : de:Глава 04
00:43:16.125 : de:Глава 05
00:54:25.792 : de:Глава 06
01:06:29.792 : de:Глава 07
01:19:23.625 : de:Глава 08
01:30:34.458 : de:Глава 09
01:42:39.000 : de:Глава 10

pb.wtf



Скачать Так близко к горизонту через торрент https://img10.lostpic.net/2020/03/17/b9123a9dbfb6314e79e122ad0aed868a.jpg Скачать фильм Так близко к горизонту через торрент бесплантно в хорошем качестве Описание: Они встретились друг с другом на рассвете своей взрослой жизни, когда чувства побеждают страх и преодолевают любые преграды. ... 10 10 3
Торрент: Зарегистрирован [2020-03-21 15:34] · скачан: 10 раз
Статус: √ проверено
Размер: 31 GB
Как cкачать? Как скачать Так близко к горизонту через торрент | qTorrent

% Раздел Тема Автор DL S | L
Фильмы 2019-2020 [DVDrip, WEB-DLRip, HDrip] (DUB, MVO) [ 2.13 GB ] Так близко к горизонту / Dem Horizont so nah [2019 BDRip] - Twi7ter Скачать
25 | 1
Фильмы 2019-2020 [DVDrip, WEB-DLRip, HDrip] (DUB, MVO) [ 1.41 GB ] Так близко к горизонту / Dem Horizont so nah [2019 BDRip] - Twi7ter Скачать
23 | 0
Фильмы [HD 720p, 1080p] (Хороший звук DUB, MVO) [ 11.37 GB ] Так близко к горизонту / Dem Horizont so nah [2019 BDRip 1080p] DUB bober100 Скачать
3 | 0
Фильмы [HD 720p, 1080p] (Хороший звук DUB, MVO) [ 6.04 GB ] Так близко к горизонту / Dem Horizont so nah [2019 BDRip 720p] DUB bober100 Скачать
1 | 0
Фильмы (WEB-DL 720p, 1080p) [ 4.09 GB ] Так близко к горизонту / Dem Horizont so nah [2019 WEB-DL 1080p] DUB bober100 Скачать
2 | 0
Фильмы 2019-2020 [DVDrip, WEB-DLRip, HDrip] (DUB, MVO) [ 1.41 GB ] Так близко к горизонту / Dem Horizont so nah [2019 BDRip] bober100 Скачать
3 | 0

28-11-2019 20:33  

Отключить всю рекламу на сайте

    Дорогой пользователь! Огромная просьба, поблагодарите релизера, оцените раздачу и оставьте свои комментарий, если Вы скачали Так близко к горизонту через торрент бесплатно! Внесите свою лепту в развитие PiratBit!
    Комментировать посты могут только пользователи прошедшие не сложную регистрацию
    Показать сообщения:    

    Так близко к горизонту через торрент
    Скачать бесплатно Так близко к горизонту
    Так близко к горизонту скачать торрент
    Так близко к горизонту смотреть онлайн
    Cкачать фильм Так близко к горизонту бесплатно
    Так близко к горизонту скачать торрент в хорошем качестве
    Так близко к горизонту смотреть онлайн бесплатно в хорошем качестве


    Вы не можете начинать темы
    Вы не можете отвечать на сообщения
    Вы не можете редактировать свои сообщения
    Вы не можете удалять свои сообщения
    Вы не можете голосовать в опросах
    Вы не можете прикреплять файлы к сообщениям
    Вы можете скачивать файлы