Ссылка на приватное зеркало нашего сайта всего за 1$. Внимание количество ограничено!!!

2 сезон

iTunes

1 сезон

1

2 сезон

2 сезон

iTunes

1 сезон

RePack

30

Новинка

ВАЖНО

ИГРА 18+

pack

RePack

MK11
pack

Забери бонус

RePack

jed

!!Акция!!

Alien_Rage

RePack

fifa19

RePack

Assassins Creed: Odyssey

RePack

NEED FOR SPEED™ PAYBACK

4 сезон

9 сезон

Бесстыжие 9 сезон

Все сериалы

все сериалы на PB.wtf

RePack

FAR CRY 5
  

Потерянные части / The Parts You Lose (Кристофер Кентвелл) [2019, Боевик, триллер, драма, BD Remux 1080p] DUB [iTunes] pb.wtf

Потерянные части через торрент pb.wtf

Размер: 19.12 GB | Добавлен: 8 мес. назад | Торрент скачан:21 раз
Скачать  

21-03-2020 15:49 Потерянные части Скачать торрент  

Потерянные части | The Parts You Lose
Год выпуска: 2019
Страна: Канада
Жанр: Боевик, триллер, драма
Продолжительность: 01:33:59
Перевод: Дублированный | iTunes
Субтитры: Русские (Forced, full), английские

Режиссер: Кристофер Кентвелл

rating

В ролях: Мэри Элизабет Уинстэд, Аарон Пол, Скут МакНэйри, Кристен Харрис, Джейн Ву, Дэнни Мерфи, Логан Креран, Анджела Нарт, Эйдан Ричи, Стив Пако

Описание: Маленький мальчик из тихого городка Северной Дакоты заводит дружбу с находящимся в бегах опасным преступником, который оказывается единственным человеком, способным помочь ему побороть свои страхи.

Качество: BD Remux 1080p
Формат: MKV

Видео: MPEG-4 AVC, 1920x1080, 25.5 Mbit/s, 23.976 fps
Аудио #01: 48 kHz, AC3, 5.1, 384 Kbps | iTunes | RUS |
Аудио #02: 48 kHz, DTS-HD MA, 5.1, 3247 Kbps | Оригинал | ENG |
скриншот  скриншот  скриншот  скриншот  скриншот  

General
Unique ID : 51157457050105074564190284354255680011 (0x267C915E09A11EA90DF01B766949720B)
Complete name : E:Video111The.Parts.You.Lose.2019.BDREMUX.1080p.seleZen.mkv
Format : Matroska
Format version : Version 4
File size : 19.1 GiB
Duration : 1 h 33 min
Overall bit rate mode : Variable
Overall bit rate : 29.1 Mb/s
Movie name : The Parts You Lose 2019 from селезень
Encoded date : UTC 2020-03-21 14:53:54
Writing application : mkvmerge v40.0.0 ('Old Town Road + Pony') 64-bit
Writing library : libebml v1.3.9 + libmatroska v1.5.2

Video
ID : 1
Format : AVC
Format/Info : Advanced Video Codec
Format profile : High@L4.1
Format settings : CABAC / 4 Ref Frames
Format settings, CABAC : Yes
Format settings, Reference : 4 frames
Format settings, GOP : M=3, N=12
Codec ID : V_MPEG4/ISO/AVC
Duration : 1 h 33 min
Bit rate mode : Variable
Bit rate : 25.5 Mb/s
Maximum bit rate : 33.3 Mb/s
Width : 1 920 pixels
Height : 1 080 pixels
Display aspect ratio : 16:9
Frame rate mode : Constant
Frame rate : 23.976 (24000/1001) FPS
Standard : NTSC
Color space : YUV
Chroma subsampling : 4:2:0
Bit depth : 8 bits
Scan type : Progressive
Bits/(Pixel*Frame) : 0.513
Stream size : 16.7 GiB (88%)
Language : English
Default : Yes
Forced : No
Color range : Limited
Color primaries : BT.709
Transfer characteristics : BT.709
Matrix coefficients : BT.709

Audio #1
ID : 2
Format : AC-3
Format/Info : Audio Coding 3
Commercial name : Dolby Digital
Codec ID : A_AC3
Duration : 1 h 33 min
Bit rate mode : Constant
Bit rate : 384 kb/s
Channel(s) : 6 channels
Channel layout : L R C LFE Ls Rs
Sampling rate : 48.0 kHz
Frame rate : 31.250 FPS (1536 SPF)
Compression mode : Lossy
Stream size : 258 MiB (1%)
Title : iTunes
Language : Russian
Service kind : Complete Main
Default : Yes
Forced : Yes

Audio #2
ID : 3
Format : DTS XLL
Format/Info : Digital Theater Systems
Commercial name : DTS-HD Master Audio
Codec ID : A_DTS
Duration : 1 h 33 min
Bit rate mode : Variable
Bit rate : 3 247 kb/s
Channel(s) : 6 channels
Channel layout : C L R Ls Rs LFE
Sampling rate : 48.0 kHz
Frame rate : 93.750 FPS (512 SPF)
Bit depth : 24 bits
Compression mode : Lossless
Stream size : 2.13 GiB (11%)
Title : Original
Language : English
Default : No
Forced : No

Text #1
ID : 4
Format : UTF-8
Codec ID : S_TEXT/UTF8
Codec ID/Info : UTF-8 Plain Text
Duration : 1 h 26 min
Bit rate : 1 b/s
Count of elements : 17
Stream size : 717 Bytes (0%)
Title : Forced
Language : Russian
Default : Yes
Forced : Yes

Text #2
ID : 5
Format : UTF-8
Codec ID : S_TEXT/UTF8
Codec ID/Info : UTF-8 Plain Text
Duration : 1 h 26 min
Bit rate : 48 b/s
Count of elements : 662
Stream size : 30.8 KiB (0%)
Title : Full
Language : Russian
Default : No
Forced : No

Text #3
ID : 6
Format : UTF-8
Codec ID : S_TEXT/UTF8
Codec ID/Info : UTF-8 Plain Text
Duration : 1 h 24 min
Bit rate : 27 b/s
Count of elements : 718
Stream size : 17.1 KiB (0%)
Title : Full
Language : English
Default : No
Forced : No

Text #4
ID : 7
Format : UTF-8
Codec ID : S_TEXT/UTF8
Codec ID/Info : UTF-8 Plain Text
Duration : 1 h 27 min
Bit rate : 28 b/s
Count of elements : 751
Stream size : 18.1 KiB (0%)
Title : SDH
Language : English
Default : No
Forced : No

Menu
00:00:00.000 : en:Chapter 01
00:05:55.105 : en:Chapter 02
00:11:03.246 : en:Chapter 03
00:17:56.951 : en:Chapter 04
00:24:17.331 : en:Chapter 05
00:29:16.505 : en:Chapter 06
00:35:04.602 : en:Chapter 07
00:41:26.484 : en:Chapter 08
00:47:24.592 : en:Chapter 09
00:52:13.213 : en:Chapter 10
00:57:50.801 : en:Chapter 11
01:07:19.035 : en:Chapter 12
01:13:01.877 : en:Chapter 13
01:15:35.823 : en:Chapter 14
01:23:12.112 : en:Chapter 15
01:28:28.803 : en:Chapter 16

pb.wtf



Скачать Потерянные части через торрент https://i111.fastpic.ru/big/2020/0321/b8/708c2364f9d6dc9aa9defaee9fb72fb8.jpg Скачать фильм Потерянные части через торрент бесплантно в хорошем качестве Описание: Маленький мальчик из тихого городка Северной Дакоты заводит дружбу с находящимся в бегах опасным преступником, который ... 10 10 3
Торрент: Зарегистрирован [2020-03-21 15:50] · скачан: 21 раз
Статус: √ проверено
Размер: 19.12 GB
Как cкачать? Как скачать Потерянные части через торрент | qTorrent

% Раздел Тема Автор DL S | L
Фильмы 2019-2020 [DVDrip, WEB-DLRip, HDrip] (DUB, MVO) [ 1.41 GB ] Потерянные части / The Parts You Lose [2019 BDRip] - Twi7ter Скачать
3 | 0
Фильмы 2019-2020 [DVDrip, WEB-DLRip, HDrip] (DUB, MVO) [ 745 MB ] Потерянные части / The Parts You Lose [2019 HDRip] bober100 Скачать
1 | 0
Фильмы 2019-2020 [DVDrip, WEB-DLRip, HDrip] (DUB, MVO) [ 1.42 GB ] Потерянные части / The Parts You Lose [2019 BDRip] bober100 Скачать
1 | 0
Фильмы [HD 720p, 1080p] (Хороший звук DUB, MVO) [ 9.53 GB ] Потерянные части / The Parts You Lose [2019 BDRip 1080p] bober100 Скачать
1 | 0
Фильмы [HD 720p, 1080p] (Хороший звук DUB, MVO) [ 4.71 GB ] Потерянные части / The Parts You Lose [2019 BDRip 720p] bober100 Скачать
1 | 0

28-11-2019 20:33  

Отключить всю рекламу на сайте

    Дорогой пользователь! Огромная просьба, поблагодарите релизера, оцените раздачу и оставьте свои комментарий, если Вы скачали Потерянные части через торрент бесплатно! Внесите свою лепту в развитие PiratBit!
    Комментировать посты могут только пользователи прошедшие не сложную регистрацию
    Показать сообщения:    

    Потерянные части через торрент
    Скачать бесплатно Потерянные части
    Потерянные части скачать торрент
    Потерянные части смотреть онлайн
    Cкачать фильм Потерянные части бесплатно
    Потерянные части скачать торрент в хорошем качестве
    Потерянные части смотреть онлайн бесплатно в хорошем качестве


    Вы не можете начинать темы
    Вы не можете отвечать на сообщения
    Вы не можете редактировать свои сообщения
    Вы не можете удалять свои сообщения
    Вы не можете голосовать в опросах
    Вы не можете прикреплять файлы к сообщениям
    Вы можете скачивать файлы