Ссылка на приватное зеркало нашего сайта всего за 1$. Внимание количество ограничено!!!

2 сезон

iTunes

1 сезон

1

iTunes

iTunes

iTunes

1 сезон

RePack

30

ИГРА 18+

pack

ВАЖНО

!!Акция!!

Alien_RageХит недели

RePack

MK11
pack

Забери бонус

RePack

jed

!!Акция!!

Alien_Rage

RePack

fifa19

RePack

Assassins Creed: Odyssey

RePack

NEED FOR SPEED™ PAYBACK

4 сезон

9 сезон

Бесстыжие 9 сезон

Все сериалы

все сериалы на PB.wtf

RePack

FAR CRY 5
  

Женщина наводит порядок / Серии: 1-4 из 4 (Григорий Жихаревич) [2020, Детектив, WEB-DLRip-AVC] pb.wtf

Женщина наводит порядок через торрент pb.wtf

Размер: 2.25 GB | Добавлен: 7 мес. назад | Торрент скачан:32 раза
Скачать  

21-03-2020 19:54 Женщина наводит порядок Скачать торрент  

Женщина наводит порядок
Год выпуска: 2020
Страна: Россия
Жанр: Детектив
Продолжительность: ~ 00:45:00 серия
Субтитры: отсутствуют

Режиссер: Григорий Жихаревич

В ролях: Эмилия Спивак, Степан Бекетов, Александр Пашков, Кристина Кузьмина, Олег Алмазов, Игорь Жижикин, Дмитрий Гирев, Марина Старых, Татьяна Рябоконь, Роман Нечаев

Описание: Анна – сотрудница банка. Пусть пока она считает чужие деньги, но Аня оптимистка, она уверена – у нее все впереди! Вот и личная жизнь почти наладилась: начальник, с которым у нее давний тайный роман, наконец, сделал предложение. И вдруг – катастрофа! Один из клиентов банка, получивший из ее рук несколько миллионов рублей, обвиняет ее в мошенничестве: внутри пачек оказалась нарезанная бумага. Доказать свою невиновность Анна не может. Жених обещает все уладить, но на некоторое время ей надо исчезнуть. Он пристраивает Анну домработницей к знакомым. Там девушку встречают очень дружелюбно, но вскоре выясняется, что у ее «хозяев» проблемы посерьезнее, чем у нее самой. И вот Анна получает неожиданное предложение. Это всего лишь маленькая авантюра, благодаря которой все они решат свои проблемы. Если только все пойдет по плану…

Качество: WEB-DLRip-AVC
Формат: MKV

Видео: MPEG-4 AVC, ~ 1600 Кбит/с, 1024x576, 25 кадр/с
Аудио: AC3, 2 ch, 192 Кбит/с
скриншот  скриншот  скриншот  скриншот  скриншот  

General
Unique ID : 207275346446023886430918335743869179955 (0x9BEFC796D6AB10F59CE8ADD02495D833)
Complete name : F:\Женщина наводит порядок.(2020).WEB-DLRip.(AVC).Files-x\01.Женщина наводит порядок.(2020).WEB-DLRip.(AVC).by.Серый1779.Files-x.mkv
Format : Matroska
Format version : Version 2
File size : 560 MiB
Duration : 43 min 42 s
Overall bit rate : 1 793 kb/s
Encoded date : UTC 2020-03-21 16:13:24
Writing application : mkvmerge v7.8.0 ('River Man') 32bit built on Apr 3 2015 12:11:22
Writing library : libebml v1.3.1 + libmatroska v1.4.2

Video
ID : 1
Format : AVC
Format/Info : Advanced Video Codec
Format profile : High@L4.1
Format settings : CABAC / 9 Ref Frames
Format settings, CABAC : Yes
Format settings, RefFrames : 9 frames
Codec ID : V_MPEG4/ISO/AVC
Duration : 43 min 42 s
Bit rate : 1 600 kb/s
Width : 1 024 pixels
Height : 576 pixels
Display aspect ratio : 16:9
Frame rate mode : Constant
Frame rate : 25.000 FPS
Color space : YUV
Chroma subsampling : 4:2:0
Bit depth : 8 bits
Scan type : Progressive
Bits/(Pixel*Frame) : 0.109
Stream size : 489 MiB (87%)
Writing library : x264 core 146 r2538 121396c
Encoding settings : cabac=1 / ref=9 / deblock=1:-2:-1 / analyse=0x3:0x133 / me=umh / subme=9 / psy=1 / psy_rd=1.00:0.15 / mixed_ref=1 / me_range=32 / chroma_me=1 / trellis=2 / 8x8dct=1 / cqm=0 / deadzone=21,11 / fast_pskip=0 / chroma_qp_offset=-3 / threads=18 / lookahead_threads=3 / sliced_threads=0 / nr=0 / decimate=1 / interlaced=0 / bluray_compat=0 / constrained_intra=0 / bframes=9 / b_pyramid=2 / b_adapt=2 / b_bias=0 / direct=1 / weightb=1 / open_gop=0 / weightp=2 / keyint=250 / keyint_min=25 / scenecut=40 / intra_refresh=0 / rc=2pass / mbtree=0 / bitrate=1600 / ratetol=1.0 / qcomp=0.60 / qpmin=0 / qpmax=69 / qpstep=4 / cplxblur=20.0 / qblur=0.5 / ip_ratio=1.40 / pb_ratio=1.30 / aq=2:1.00
Default : Yes
Forced : No
Color range : Limited
Color primaries : BT.709
Transfer characteristics : BT.709
Matrix coefficients : BT.709

Audio
ID : 2
Format : AC-3
Format/Info : Audio Coding 3
Format settings, Endianness : Big
Codec ID : A_AC3
Duration : 43 min 42 s
Bit rate mode : Constant
Bit rate : 192 kb/s
Channel(s) : 2 channels
Channel positions : Front: L R
Sampling rate : 48.0 kHz
Frame rate : 31.250 FPS (1536 SPF)
Bit depth : 16 bits
Compression mode : Lossy
Stream size : 60.0 MiB (11%)
Service kind : Complete Main
Default : Yes
Forced : No

pb.wtf



Скачать Женщина наводит порядок через торрент https://i111.fastpic.ru/big/2020/0321/5e/5401807ab82fe2ff2f01c54611cd865e.jpg Скачать фильм Женщина наводит порядок через торрент бесплантно в хорошем качестве Описание: Анна – сотрудница банка. Пусть пока она считает чужие деньги, но Аня оптимистка, она уверена – у нее все впереди! Вот и личная ... 9.3 10 3
Торрент: Зарегистрирован [2020-03-21 19:54] · скачан: 32 раз
Статус: √ проверено
Размер: 2.25 GB
Как cкачать? Как скачать Женщина наводит порядок через торрент | qTorrent

% Раздел Тема Автор DL S | L
Наши сериалы [ 3.59 GB ] Женщина наводит порядок / Серии: 1-4 из 4 [2020 WEB-DL 720p] bober100 Скачать
1 | 0
Наши сериалы [ 6.83 GB ] Женщина наводит порядок / Серии: 1-4 из 4 [2020 WEB-DL 1080p] bober100 Скачать
1 | 0
Наши сериалы [ 2.26 GB ] Женщина наводит порядок / Серии: 1-4 из 4 [2020 WEB-DLRip] bober100 Скачать
1 | 0
Наши сериалы [ 2.11 GB ] Женщина наводит порядок / Серии: 1-4 из 4 [2020 SATRip-AVC] aleksan55 Скачать
1 | 0

28-11-2019 20:33  

Отключить всю рекламу на сайте

    Дорогой пользователь! Огромная просьба, поблагодарите релизера, оцените раздачу и оставьте свои комментарий, если Вы скачали Женщина наводит порядок через торрент бесплатно! Внесите свою лепту в развитие PiratBit!
    Комментировать посты могут только пользователи прошедшие не сложную регистрацию
    Показать сообщения:    

    Женщина наводит порядок через торрент
    Скачать бесплатно Женщина наводит порядок
    Женщина наводит порядок скачать торрент
    Женщина наводит порядок смотреть онлайн
    Cкачать фильм Женщина наводит порядок бесплатно
    Женщина наводит порядок скачать торрент в хорошем качестве
    Женщина наводит порядок смотреть онлайн бесплатно в хорошем качестве


    Вы не можете начинать темы
    Вы не можете отвечать на сообщения
    Вы не можете редактировать свои сообщения
    Вы не можете удалять свои сообщения
    Вы не можете голосовать в опросах
    Вы не можете прикреплять файлы к сообщениям
    Вы можете скачивать файлы