Ссылка на приватное зеркало нашего сайта всего за 1$. Внимание количество ограничено!!!

2 сезон

iTunes

1 сезон

1

iTunes

iTunes

iTunes

1 сезон

RePack

30

ИГРА 18+

pack

ВАЖНО

!!Акция!!

Alien_RageХит недели

RePack

MK11
pack

Забери бонус

RePack

jed

!!Акция!!

Alien_Rage

RePack

fifa19

RePack

Assassins Creed: Odyssey

RePack

NEED FOR SPEED™ PAYBACK

4 сезон

9 сезон

Бесстыжие 9 сезон

Все сериалы

все сериалы на PB.wtf

RePack

FAR CRY 5
  

О чем не расскажет река / Серии: 1-4 из 4 (Павел Тупик) [2019, Мелодрама, WEB-DLRip] pb.wtf

О чем не расскажет река через торрент pb.wtf

Раздают: 1 [ 0 KB/s ]
Размер: 2.26 GB | Добавлен: 7 мес. назад | Торрент скачан:22 раза
Скачать  

22-03-2020 02:06 О чем не расскажет река Скачать торрент  

О чем не расскажет река
Год выпуска: 2019
Страна: Россия, Украина
Жанр: Мелодрама
Продолжительность: ~ 00:45:00 серия
Субтитры: отсутствуют

Режиссер: Павел Тупик



В ролях: Евгений Олейник, Лянка Грыу, Оксана Жданова, Виктор Жданов, Роман Соболевский, Максим Даньшин, Егор Герасимов, Янина Колесниченко, Сергей Булин, Арсений Голобородько

Описание: Елена трудится в столичном промышленном холдинге и метит на должность топ-менеджера. Но ее коллега подстраивает, что девушку отправляют на проблемный объект – загибающуюся лесопилку далеко в глуши. Чтобы поднять лесопилку, Елене нужно найти общий язык с ее начальником Андреем. Однако тот привык работать по старинке и не приемлет современные методы управления. Удастся ли девушке наладить отношения с начальником и справиться с коварной Жанной, у которой всегда припрятан очередной "сюрприз"?

Качество: WEB-DLRip
Формат: AVI

Видео: XviD, ~ 1596 Кбит/с, 720x400, 25 кадр/с
Аудио: AC3, 2 ch, 192 Кбит/с
скриншот  скриншот  скриншот  скриншот  скриншот  

General
Complete name : C:01.О чём не расскажет река.(2019).WEB-DLRip.by.Nicodem.Files-x.avi
Format : AVI
Format/Info : Audio Video Interleave
File size : 580 MiB
Duration : 45mn 7s
Overall bit rate : 1 798 Kbps
Writing application : VirtualDubMod 1.5.10.3 | www.virtualdub-fr.org || (build 2550/release)
Writing library : VirtualDubMod build 2550/release

Video
ID : 0
Format : MPEG-4 Visual
Format profile : Advanced Simple@L5
Format settings, BVOP : 1
Format settings, QPel : No
Format settings, GMC : No warppoints
Format settings, Matrix : Custom
Codec ID : XVID
Codec ID/Hint : XviD
Duration : 45mn 7s
Bit rate : 1 596 Kbps
Width : 720 pixels
Height : 400 pixels
Display aspect ratio : 16:9
Frame rate : 25.000 fps
Color space : YUV
Chroma subsampling : 4:2:0
Bit depth : 8 bits
Scan type : Progressive
Compression mode : Lossy
Bits/(Pixel*Frame) : 0.222
Stream size : 515 MiB (89%)
Writing library : XviD 73

Audio
ID : 1
Format : AC-3
Format/Info : Audio Coding 3
Mode extension : CM (complete main)
Codec ID : 2000
Duration : 45mn 7s
Bit rate mode : Constant
Bit rate : 192 Kbps
Channel(s) : 2 channels
Channel positions : Front: L R
Sampling rate : 48.0 KHz
Bit depth : 16 bits
Compression mode : Lossy
Stream size : 62.0 MiB (11%)
Alignment : Split accross interleaves
Interleave, duration : 40 ms (1.00 video frame)
Interleave, preload duration : 500 ms


pb.wtf



Скачать О чем не расскажет река через торрент https://i86.fastpic.ru/big/2019/1005/3f/37d0d3ddccc90d6f11c1aebf480cec3f.jpg Скачать фильм О чем не расскажет река через торрент бесплантно в хорошем качестве Описание: Елена трудится в столичном промышленном холдинге и метит на должность топ-менеджера. Но ее коллега подстраивает, что девушку ... 9.8 10 4
Торрент: Зарегистрирован [2020-03-22 02:06] · скачан: 22 раз
Статус: √ проверено
Размер: 2.26 GB
Как cкачать? Как скачать О чем не расскажет река через торрент | qTorrent

% Раздел Тема Автор DL S | L
Наши сериалы [ 6.47 GB ] О чем не расскажет река / Серии: 1-4 из 4 [2019 Мело WEB-DL 1080p] bober100 Скачать
1 | 0
Наши сериалы [ 4.59 GB ] О чем не расскажет река / Серии: 1-4 из 4 [2019 Мело WEB-DL 720p] bober100 Скачать
1 | 0
Наши сериалы [ 2.24 GB ] О чем не расскажет река / Серии: 1-4 из 4 [2019 Мело WEB-DLRip-AVC] bober100 Скачать
1 | 0

28-11-2019 20:33  

Отключить всю рекламу на сайте

    Дорогой пользователь! Огромная просьба, поблагодарите релизера, оцените раздачу и оставьте свои комментарий, если Вы скачали О чем не расскажет река через торрент бесплатно! Внесите свою лепту в развитие PiratBit!
    Комментировать посты могут только пользователи прошедшие не сложную регистрацию
    Показать сообщения:    

    О чем не расскажет река через торрент
    Скачать бесплатно О чем не расскажет река
    О чем не расскажет река скачать торрент
    О чем не расскажет река смотреть онлайн
    Cкачать фильм О чем не расскажет река бесплатно
    О чем не расскажет река скачать торрент в хорошем качестве
    О чем не расскажет река смотреть онлайн бесплатно в хорошем качестве


    Вы не можете начинать темы
    Вы не можете отвечать на сообщения
    Вы не можете редактировать свои сообщения
    Вы не можете удалять свои сообщения
    Вы не можете голосовать в опросах
    Вы не можете прикреплять файлы к сообщениям
    Вы можете скачивать файлы