2 сезон

iTunes

1 сезон

1

iTunes

iTunes

iTunes

1 сезон

RePack

30

ИГРА 18+

pack

ВАЖНО

!!Акция!!

Alien_RageХит недели

RePack

MK11
pack

Забери бонус

RePack

jed

!!Акция!!

Alien_Rage

RePack

fifa19

RePack

Assassins Creed: Odyssey

RePack

NEED FOR SPEED™ PAYBACK

4 сезон

9 сезон

Бесстыжие 9 сезон

Все сериалы

все сериалы на PB.wtf

RePack

FAR CRY 5
  

О чем не расскажет река / Серии: 1-4 из 4 (Павел Тупик) [2019, Мелодрама, WEB-DL 720p] pb.wtf

О чем не расскажет река через торрент pb.wtf

Размер: 4.59 GB | Добавлен: 7 мес. назад | Торрент скачан:12 раз
Скачать  

22-03-2020 02:06 О чем не расскажет река Скачать торрент  

О чем не расскажет река
Год выпуска: 2019
Страна: Россия, Украина
Жанр: Мелодрама
Продолжительность: ~ 00:45:00 серия
Субтитры: отсутствуют

Режиссер: Павел Тупик



В ролях: Евгений Олейник, Лянка Грыу, Оксана Жданова, Виктор Жданов, Роман Соболевский, Максим Даньшин, Егор Герасимов, Янина Колесниченко, Сергей Булин, Арсений Голобородько

Описание: Елена трудится в столичном промышленном холдинге и метит на должность топ-менеджера. Но ее коллега подстраивает, что девушку отправляют на проблемный объект – загибающуюся лесопилку далеко в глуши. Чтобы поднять лесопилку, Елене нужно найти общий язык с ее начальником Андреем. Однако тот привык работать по старинке и не приемлет современные методы управления. Удастся ли девушке наладить отношения с начальником и справиться с коварной Жанной, у которой всегда припрятан очередной "сюрприз"?

Качество: WEB-DL 720p
Формат: MKV

Видео: MPEG-4 AVC, ~ 3500 Кбит/с, 1280х720, 25 кадр/с
Аудио: AC3, 2 ch, 192 Кбит/с
скриншот  скриншот  скриншот  скриншот  

General
Unique ID : 142349302175603828149946085825925110474 (0x6B177A75F3000277CA59EDCE9B005ACA)
Complete name : C:01.О чём не расскажет река.(2019).WEB-DL (720p).by.Nicodem.Files-x.mkv
Format : Matroska
File size : 1.15 GiB
Duration : 45mn 7s
Overall bit rate : 3 665 Kbps
Writing application : Lavf56.36.100
Writing library : Lavf56.36.100

Video
ID : 1
Format : AVC
Format/Info : Advanced Video Codec
Format profile : High@L4.1
Format settings, CABAC : Yes
Format settings, ReFrames : 5 frames
Codec ID : V_MPEG4/ISO/AVC
Duration : 45mn 7s
Bit rate : 3 500 Kbps
Width : 1 280 pixels
Height : 720 pixels
Display aspect ratio : 16:9
Frame rate mode : Variable
Frame rate : 25.000 fps
Color space : YUV
Chroma subsampling : 4:2:0
Bit depth : 8 bits
Scan type : Progressive
Bits/(Pixel*Frame) : 0.152
Stream size : 1.07 GiB (93%)
Writing library : x264 core 148
Encoding settings : cabac=1 / ref=5 / deblock=1:0:0 / analyse=0x3:0x113 / me=hex / subme=8 / psy=1 / psy_rd=1.00:0.00 / mixed_ref=1 / me_range=16 / chroma_me=1 / trellis=2 / 8x8dct=1 / cqm=0 / deadzone=21,11 / fast_pskip=1 / chroma_qp_offset=-2 / threads=22 / lookahead_threads=3 / sliced_threads=0 / nr=0 / decimate=1 / interlaced=0 / bluray_compat=0 / constrained_intra=0 / bframes=3 / b_pyramid=2 / b_adapt=1 / b_bias=0 / direct=3 / weightb=1 / open_gop=0 / weightp=2 / keyint=250 / keyint_min=25 / scenecut=0 / intra_refresh=0 / rc_lookahead=50 / rc=abr / mbtree=1 / bitrate=3500 / ratetol=1.0 / qcomp=0.60 / qpmin=0 / qpmax=69 / qpstep=4 / ip_ratio=1.40 / aq=1:1.00
Language : English

Audio
ID : 2
Format : AC-3
Format/Info : Audio Coding 3
Mode extension : CM (complete main)
Codec ID : A_AC3
Duration : 45mn 7s
Bit rate mode : Constant
Bit rate : 192 Kbps
Channel(s) : 2 channels
Channel positions : Front: L R
Sampling rate : 44.1 KHz
Bit depth : 16 bits
Compression mode : Lossy
Delay relative to video : 1mn 5s
Stream size : 62.0 MiB (5%)
Language : English / un


pb.wtf



Скачать О чем не расскажет река через торрент https://i86.fastpic.ru/big/2019/1005/3f/37d0d3ddccc90d6f11c1aebf480cec3f.jpg Скачать фильм О чем не расскажет река через торрент бесплантно в хорошем качестве Описание: Елена трудится в столичном промышленном холдинге и метит на должность топ-менеджера. Но ее коллега подстраивает, что девушку ... 10 10 2
Торрент: Зарегистрирован [2020-03-22 02:06] · скачан: 12 раз
Статус: √ проверено
Размер: 4.59 GB
Как cкачать? Как скачать О чем не расскажет река через торрент | qTorrent

% Раздел Тема Автор DL S | L
Наши сериалы [ 6.47 GB ] О чем не расскажет река / Серии: 1-4 из 4 [2019 Мело WEB-DL 1080p] bober100 Скачать
1 | 0
Наши сериалы [ 2.24 GB ] О чем не расскажет река / Серии: 1-4 из 4 [2019 Мело WEB-DLRip-AVC] bober100 Скачать
1 | 0
Наши сериалы [ 2.26 GB ] О чем не расскажет река / Серии: 1-4 из 4 [2019 Мело WEB-DLRip] bober100 Скачать
2 | 0

28-11-2019 20:33  

Отключить всю рекламу на сайте

    Дорогой пользователь! Огромная просьба, поблагодарите релизера, оцените раздачу и оставьте свои комментарий, если Вы скачали О чем не расскажет река через торрент бесплатно! Внесите свою лепту в развитие PiratBit!
    Комментировать посты могут только пользователи прошедшие не сложную регистрацию
    Показать сообщения:    

    О чем не расскажет река через торрент
    Скачать бесплатно О чем не расскажет река
    О чем не расскажет река скачать торрент
    О чем не расскажет река смотреть онлайн
    Cкачать фильм О чем не расскажет река бесплатно
    О чем не расскажет река скачать торрент в хорошем качестве
    О чем не расскажет река смотреть онлайн бесплатно в хорошем качестве


    Вы не можете начинать темы
    Вы не можете отвечать на сообщения
    Вы не можете редактировать свои сообщения
    Вы не можете удалять свои сообщения
    Вы не можете голосовать в опросах
    Вы не можете прикреплять файлы к сообщениям
    Вы можете скачивать файлы