Ссылка на приватное зеркало всего за 1$. Внимание количество ограничено!!!

iTunes

iTunes

iTunes

1

iTunes

iTunes

iTunes

iTunes

iTunes

30
pack

Новость дня

ВАЖНО

!!Акция!!

Alien_RageХит недели

RePack

Resident Evil 21

ИГРА 18+

pack

RePack

jed

!!Акция!!

Alien_Rage

RePack

fifa19

RePack

Assassins Creed: Odyssey

RePack

NEED FOR SPEED™ PAYBACK

4 сезон

9 сезон

Бесстыжие 9 сезон

Все сериалы

все сериалы на PB.wtf

RePack

FAR CRY 5
  

Тролль: История с хвостом / Troll: The Tale of a Tail (Кевин Манро, Кристиан Кэмп) [2018, Мультфильм, фэнтези, приключения, семейный, WEB-DL 1080p] DUB [iTunes] pb.wtf

Тролль: История с хвостом через торрент pb.wtf

Раздают: 13 [ 189 KB/s ] Качают: 1 [ 1 MB/s ]
Размер: 3 GB | Добавлен: 17 д. назад | Торрент скачан:198 раз
Скачать  

22-03-2020 05:25 Тролль: История с хвостом Скачать торрент  

Тролль: История с хвостом | Troll: The Tale of a Tail
Год выпуска: 2018
Страна: Норвегия, Канада
Жанр: Мультфильм, фэнтези, приключения, семейный
Продолжительность: 01:26:46
Перевод: Дублированный | iTunes
Субтитры: отсутствуют

Режиссер: Кевин Манро, Кристиан Кэмп

rating

В ролях: Адам Незеркотт, Ричард Дюмон, Соня Болл, Уайатт Бауэн, Марк Камачо, Элана Дункельман, Анджела Галуппо, Стефан Готье, Рик Джонс, Терренс Скаммелл

Описание: Далеко-далеко, в дремучем лесу есть маленькое королевство троллей. Случилась беда, во время забега сильнейших король Гром попал в капкан и обратился в камень. На трон взошёл его злой брат… Юный принц Трим, сын короля Грома, может спасти своего отца и всё королевство, но для этого он должен отправиться в опасное путешествие в мир людей.

Качество: WEB-DL 1080p
Формат: MKV

Видео: AVC, 4559 Kb/s, 1920x804
Аудио Russian: 48 kHz, AC3 Dolby Digital, 3/2 (L,C,R,l,r) + LFE ch, ~384 kbps
скриншот  скриншот  скриншот  скриншот  

Video
ID: 1
Format: AVC
Format/Info: Advanced Video Codec
Format profile: High@L4
Format settings: CABAC / 5 Ref Frames
Format settings, CABAC: Yes
Format settings, Reference: 5 frames
Codec ID: V_MPEG4/ISO/AVC
Duration: 1 h 26 min
Bit rate: 4 559 kb/s
Width: 1 920 pixels
Height: 804 pixels
Display aspect ratio: 2.40:1
Frame rate mode: Constant
Frame rate: 25.000 FPS
Color space: YUV
Chroma subsampling: 4:2:0
Bit depth: 8 bits
Scan type: Progressive
Bits/(Pixel*Frame): 0.118
Stream size: 2.76 GiB (92%)
Title: TROLL_TTOAT_2018_WEB-DL_1080p-BLUEBIRD
Language: English
Default: Yes
Forced: No
Color range: Limited
Color primaries: BT.709
Transfer characteristics: BT.709
Matrix coefficients: BT.709

Audio
ID: 2
Format: AC-3
Format/Info: Audio Coding 3
Commercial name: Dolby Digital
Codec ID: A_AC3
Duration: 1 h 26 min
Bit rate mode: Constant
Bit rate: 384 kb/s
Channel(s): 6 channels
Channel layout: L R C LFE Ls Rs
Sampling rate: 48.0 kHz
Frame rate: 31.250 FPS (1536 SPF)
Compression mode: Lossy
Delay relative to video: -40 ms
Stream size: 238 MiB (8%)
Title: [DUB] DD 5.1 @ 384 kbps (iTunes)
Language: Russian
Service kind: Complete Main
Default: Yes
Forced: No

Menu
00:00:00.000: en:Глава 1
00:08:13.520: en:Глава 2
00:17:00.520: en:Глава 3
00:26:10.440: en:Глава 4
00:34:47.599: en:Глава 5
00:42:49.599: en:Глава 6
00:51:17.399: en:Глава 7
00:59:37.079: en:Глава 8
01:08:08.439: en:Глава 9
01:16:35.919: en:Глава 10

pb.wtf



Скачать Тролль: История с хвостом через торрент https://d.radikal.ru/d18/2003/8a/edb7aab9562e.png Скачать фильм Тролль: История с хвостом через торрент бесплантно в хорошем качестве Описание: Далеко-далеко, в дремучем лесу есть маленькое королевство троллей. Случилась беда, во время забега сильнейших король Гром попал в ... 10 10 12
Торрент: Зарегистрирован [2020-03-22 05:25] · скачан: 198 раз
Статус: √ проверено
Размер: 3 GB
Как cкачать? Как скачать Тролль: История с хвостом через торрент | qTorrent

% Раздел Тема Автор DL S | L
Иностранные мультфильмы [ 709 MB ] Тролль: История с хвостом / Troll: The Tale of a Tail [2018 мультфильм WEB-DLRip ""] coc900 Скачать
2 | 0
Иностранные мультфильмы [ 1.46 GB ] Тролль: История с хвостом / Troll: The Tale of a Tail [2018 Мультфильм WEB-DLRip] bober100 Скачать
8 | 0

28-11-2019 20:33  

Отключить всю рекламу на сайте

    Дорогой пользователь! Огромная просьба, поблагодарите релизера, оцените раздачу и оставьте свои комментарий, если Вы скачали Тролль: История с хвостом через торрент бесплатно! Внесите свою лепту в развитие PiratBit!
    Комментировать посты могут только пользователи прошедшие не сложную регистрацию
    Показать сообщения:    

    Тролль: История с хвостом через торрент
    Скачать бесплатно Тролль: История с хвостом
    Тролль: История с хвостом скачать торрент
    Тролль: История с хвостом смотреть онлайн
    Cкачать фильм Тролль: История с хвостом бесплатно
    Тролль: История с хвостом скачать торрент в хорошем качестве
    Тролль: История с хвостом смотреть онлайн бесплатно в хорошем качестве


    Вы не можете начинать темы
    Вы не можете отвечать на сообщения
    Вы не можете редактировать свои сообщения
    Вы не можете удалять свои сообщения
    Вы не можете голосовать в опросах
    Вы не можете прикреплять файлы к сообщениям
    Вы можете скачивать файлы