2 сезон

iTunes

MVO

1

2 сезон

iTunes

iTunes

1 сезон

RePack

30

Ultimate

ВАЖНО

ИГРА 18+

pack

RePack

MK11
pack

Легкие деньги

RePack

jed

RePack

fifa19

RePack

RDR2

RePack

NEED FOR SPEED™ PAYBACK

4 сезон

9 сезон

Бесстыжие 9 сезон

Все сериалы

все сериалы на PB.wtf

RePack

FAR CRY 5

Anonymous, доброй ночи, мы не успеваем собрать деньги на оплату серверов за декабрь и январь, помогите нам пожалуйста в это трудное время. В качестве благодарности мы отключим Вам всю рекламу на сайте (укажите свой ник в строку Ваше имя)!

×
  
Magnet ссылка

Глубоководная звезда шесть / DeepStar Six (Шон С. Каннингэм) [1988 г., ужасы, фантастика, боевик, триллер, BDRip 720p / 60 FPS, Профессиональный (многоголосый)] от R.G. HD-Films pb.wtf

Глубоководная звезда шесть через торрент pb.wtf

Размер: 2.68 GB | Добавлен: 9 мес. назад | Торрент скачан:138 раз
Скачать  

22-03-2020 10:36 Глубоководная звезда шесть Скачать торрент  

Глубоководная звезда шесть / DeepStar Six
Год выпуска: 1988
Страна: США
Жанр: ужасы, фантастика, боевик, триллер
Продолжительность: 01:39:33
Перевод: Профессиональный (многоголосый закадровый)
Субтитры: Russian

Режиссер: Шон С. Каннингэм

Бюджет: $8 000 000
Премьера в мире: 13 января 1989

rating

В ролях: Торин Блак, Нэнси Эверхард, Грег Эвиган, Мигель Феррер, Ниа Пиплз, Мэтт МакКой, Синди Пикетт, Мариус Вейерс, Илья Баскин, Том Брэй

Описание: В США спроектировали подводную лабораторию — «Глубинную звезду-6». Военно-морской флот согласился финансировать ее создание при условии, что там будут размещены секретные военные установки. Опустившись на дно океана, «Глубинная звезда-6» потревожила таинственное глубоководное создание, решившее истребить персонал станции…

Качество: BDRip 720p / 60 FPS
Формат: MKV
Видео кодек: H.264
Аудио кодек: AC3
Видео: x264, 1280 x 544 ( 2,35:1 ), 3668 kbps, 60,000 fps, ( 0.088 bpp)
Аудио#1: Русский, AC-3, 48.0 KHz, 2 ch, 192 Kbps ( MVO ( R5 ) )
Релиз от:

скриншот   скриншот   скриншот   скриншот   скриншот   скриншот  Автор рипа: slaventi-69
x264 [info]: frame I:1883 Avg QP:16.06 size: 72860
x264 [info]: frame P:86839 Avg QP:18.89 size: 17933
x264 [info]: frame B:269346 Avg QP:21.74 size: 3869
x264 [info]: consecutive B-frames: 2.2% 4.0% 10.4% 12.2% 65.2% 6.0%


Общее
Уникальный идентификатор : 207186645900175697793509104839158829446 (0x9BDEB2508D6292DB0CDEE55BF8E29186)
Полное имя : F:\DeepStar.Six.(1988).BDRip.720p.(60 Fps).mkv
Формат : Matroska
Версия формата : Version 4
Размер файла : 2,68 Гбайт
Продолжительность : 1 ч. 39 м.
Общий поток : 3864 Кбит/сек
Название фильма : = Глубоководная звезда шесть / DeepStar Six (1988) BDRip 720p (60 Fps)
Дата кодирования : UTC 2020-03-19 10:15:39
Программа кодирования : mkvmerge v42.0.0 ('Overtime') 64-bit
Библиотека кодирования : libebml v1.3.10 + libmatroska v1.5.2

Видео
Идентификатор : 1
Формат : AVC
Формат/Информация : Advanced Video Codec
Профиль формата : High@L4.1
Настройки формата : CABAC / 8 Ref Frames
Параметр CABAC формата : Да
Параметр RefFrames формата : 8 кадров
Идентификатор кодека : V_MPEG4/ISO/AVC
Продолжительность : 1 ч. 39 м.
Битрейт : 3668 Кбит/сек
Ширина : 1280 пикселей
Высота : 544 пикселя
Соотношение сторон : 2,35:1
Режим частоты кадров : Постоянный
Частота кадров : 60,000 кадров/сек
Цветовое пространство : YUV
Субдискретизация насыщенности : 4:2:0
Битовая глубина : 8 бит
Тип развёртки : Прогрессивная
Бит/(Пиксели*Кадры) : 0.088
Размер потока : 2,55 Гбайт (95%)
Заголовок : slaventi-69 ( R.G. HD-Films | 60 fps )
Библиотека кодирования : x264 core 130 r2273 b3065e6
Настройки программы : cabac=1 / ref=8 / deblock=1:-1:-1 / analyse=0x3:0x133 / me=umh / subme=9 / psy=1 / psy_rd=1.00:0.00 / mixed_ref=1 / me_range=26 / chroma_me=1 / trellis=2 / 8x8dct=1 / cqm=0 / deadzone=21,11 / fast_pskip=0 / chroma_qp_offset=-2 / threads=6 / lookahead_threads=4 / sliced_threads=0 / nr=0 / decimate=1 / interlaced=0 / bluray_compat=0 / constrained_intra=0 / bframes=5 / b_pyramid=2 / b_adapt=2 / b_bias=0 / direct=3 / weightb=1 / open_gop=0 / weightp=2 / keyint=250 / keyint_min=25 / scenecut=40 / intra_refresh=0 / rc_lookahead=50 / rc=crf / mbtree=1 / crf=17.0 / qcomp=0.60 / qpmin=0 / qpmax=69 / qpstep=4 / ip_ratio=1.40 / aq=1:1.00
Язык : English
Default : Да
Forced : Нет

Аудио
Идентификатор : 2
Формат : AC-3
Формат/Информация : Audio Coding 3
Коммерческое название : Dolby Digital
Идентификатор кодека : A_AC3
Продолжительность : 1 ч. 39 м.
Вид битрейта : Постоянный
Битрейт : 192 Кбит/сек
Каналы : 2 канала
Channel layout : L R
Частота : 48,0 КГц
Частота кадров : 31,250 кадров/сек (1536 SPF)
Битовая глубина : 16 бит
Метод сжатия : С потерями
Размер потока : 137 Мбайт (5%)
Заголовок : MVO ( R5 )
Язык : Russian
ServiceKind/String : Complete Main
Default : Да
Forced : Нет

Текст
Идентификатор : 3
Формат : UTF-8
Идентификатор кодека : S_TEXT/UTF8
Идентификатор кодека/Информация : UTF-8 Plain Text
Продолжительность : 1 ч. 34 м.
Битрейт : 73 бит/сек
ElementCount : 866
Размер потока : 50,4 Кбайт (0%)
Язык : Russian
Default : Нет
Forced : Нет

Меню
00:00:00.000 : en:00:00:00.000
00:04:00.573 : en:00:04:00.573
00:08:13.326 : en:00:08:13.326
00:11:06.289 : en:00:11:06.289
00:12:52.562 : en:00:12:52.562
00:17:23.750 : en:00:17:23.750
00:18:34.946 : en:00:18:34.946
00:21:23.699 : en:00:21:23.699
00:25:57.430 : en:00:25:57.430
00:30:24.239 : en:00:30:24.239
00:32:36.621 : en:00:32:36.621
00:39:25.612 : en:00:39:25.612
00:48:35.996 : en:00:48:35.996
00:53:02.637 : en:00:53:02.637
01:00:07.061 : en:01:00:07.061
01:04:02.838 : en:01:04:02.838
01:10:59.337 : en:01:10:59.337
01:16:50.314 : en:01:16:50.314
01:19:21.213 : en:01:19:21.213
01:21:31.761 : en:01:21:31.761
01:22:19.225 : en:01:22:19.225
01:26:12.667 : en:01:26:12.667
01:30:29.631 : en:01:30:29.631
01:36:16.686 : en:01:36:16.686

Просьба к переливающим на другие сайты, в оформлении указывайте пожалуйста авторство группы R.G. HD-Films pb.wtf



Скачать Глубоководная звезда шесть через торрент http://i.imgur.com/At4aFbh.jpg Скачать фильм Глубоководная звезда шесть через торрент бесплантно в хорошем качестве Описание: В США спроектировали подводную лабораторию — «Глубинную звезду-6». Военно-морской флот согласился финансировать ее создание при ... 10 10 8
Торрент: Зарегистрирован [2020-03-22 10:36] · скачан: 138 раз
Статус: √ проверено
Размер: 2.68 GB
Как cкачать? Как скачать Глубоководная звезда шесть через торрент | UTorrent

28-11-2019 20:33  

Отключить всю рекламу на сайте

22-03-2020 11:09 Глубоководная звезда шесть Скачать торрент  

Старая добрая фантастика!!! Спасибо большое за фильм!!!pb.wtf



22-03-2020 11:23 Глубоководная звезда шесть Скачать торрент  

Пожалуйста.pb.wtf



22-03-2020 13:12 Глубоководная звезда шесть Скачать торрент  

Спасибо!pb.wtf



23-03-2020 18:20 Глубоководная звезда шесть Скачать торрент  

бездна-тоже аналогичный фильмpb.wtf



24-03-2020 18:47 Глубоководная звезда шесть Скачать торрент  

Старые фильмы почему то интересные...не сравнить с современными аналогами.pb.wtf



31-03-2020 23:31 Глубоководная звезда шесть Скачать торрент  

никаких компьютеров, потому и интереснее и сюжеты к тому времени еще не избитыеpb.wtf



    Дорогой пользователь! Огромная просьба, поблагодарите релизера, оцените раздачу и оставьте свои комментарий, если Вы скачали Глубоководная звезда шесть через торрент бесплатно! Внесите свою лепту в развитие PiratBit!
    Комментировать посты могут только пользователи прошедшие не сложную регистрацию
    Показать сообщения:    

    Глубоководная звезда шесть через торрент
    Скачать бесплатно Глубоководная звезда шесть
    Глубоководная звезда шесть скачать торрент
    Глубоководная звезда шесть смотреть онлайн
    Cкачать фильм Глубоководная звезда шесть бесплатно
    Глубоководная звезда шесть скачать торрент в хорошем качестве
    Глубоководная звезда шесть смотреть онлайн бесплатно в хорошем качестве


    Вы не можете начинать темы
    Вы не можете отвечать на сообщения
    Вы не можете редактировать свои сообщения
    Вы не можете удалять свои сообщения
    Вы не можете голосовать в опросах
    Вы не можете прикреплять файлы к сообщениям
    Вы можете скачивать файлы