Ссылка на приватное зеркало нашего сайта всего за 1$. Внимание количество ограничено!!!

2 сезон

iTunes

1 сезон

1

iTunes

iTunes

iTunes

1 сезон

RePack

30

ИГРА 18+

pack

ВАЖНО

!!Акция!!

Alien_RageХит недели

RePack

MK11
pack

Забери бонус

RePack

jed

!!Акция!!

Alien_Rage

RePack

fifa19

RePack

Assassins Creed: Odyssey

RePack

NEED FOR SPEED™ PAYBACK

4 сезон

9 сезон

Бесстыжие 9 сезон

Все сериалы

все сериалы на PB.wtf

RePack

FAR CRY 5
  

Женщина наводит порядок / Серии: 1-4 из 4 (Григорий Жихаревич) [2020, Детектив, WEB-DL 720p] pb.wtf

Женщина наводит порядок через торрент pb.wtf

Размер: 3.59 GB | Добавлен: 6 мес. назад | Торрент скачан:47 раз
Скачать  

22-03-2020 16:53 Женщина наводит порядок Скачать торрент  

Женщина наводит порядок
Год выпуска: 2020
Страна: Россия
Жанр: Детектив
Продолжительность: ~ 00:45:00 серия
Субтитры: отсутствуют

Режиссер: Григорий Жихаревич

В ролях: Эмилия Спивак, Степан Бекетов, Александр Пашков, Кристина Кузьмина, Олег Алмазов, Игорь Жижикин, Дмитрий Гирев, Марина Старых, Татьяна Рябоконь, Роман Нечаев

Описание: Анна – сотрудница банка. Пусть пока она считает чужие деньги, но Аня оптимистка, она уверена – у нее все впереди! Вот и личная жизнь почти наладилась: начальник, с которым у нее давний тайный роман, наконец, сделал предложение. И вдруг – катастрофа! Один из клиентов банка, получивший из ее рук несколько миллионов рублей, обвиняет ее в мошенничестве: внутри пачек оказалась нарезанная бумага. Доказать свою невиновность Анна не может. Жених обещает все уладить, но на некоторое время ей надо исчезнуть. Он пристраивает Анну домработницей к знакомым. Там девушку встречают очень дружелюбно, но вскоре выясняется, что у ее «хозяев» проблемы посерьезнее, чем у нее самой. И вот Анна получает неожиданное предложение. Это всего лишь маленькая авантюра, благодаря которой все они решат свои проблемы. Если только все пойдет по плану…

Качество: WEB-DL 720p
Формат: MKV

Видео: 1280х720 (16:9), 25 fps, AVC MPEG-4 (x264), High@L4.1 ~ 2500 kbps avg, 0.109 bit/pixel
Аудио: 48 kHz, AC3, 2 ch, 256 kbps avg
скриншот  скриншот  скриншот  скриншот  

Общее
Уникальный идентификатор : 188396430709574088558712357284722551756 (0x8DBBD52DEB5D87638C30ACF58604ABCC)
Полное имя : D:\Zhenschina.navodit.poryadok.2020.WEB-DL.(720p).ExKinoRay\Zhenschina.navodit.poryadok.E01.2020.WEB-DL.(720p).ExKinoRay.mkv
Формат : Matroska
Версия формата : Version 4 / Version 2
Размер файла : 893 Мбайт
Продолжительность : 44 м. 16 с.
Общий поток : 2820 Кбит/сек
Дата кодирования : UTC 2020-03-22 15:46:27
Программа кодирования : mkvmerge v6.9.1 ('Blue Panther') 64bit built on Apr 18 2014 18:23:38
Библиотека кодирования : libebml v1.3.0 + libmatroska v1.4.1

Видео
Идентификатор : 1
Формат : AVC
Формат/Информация : Advanced Video Codec
Профиль формата : High@L4
Параметр CABAC формата : Да
Параметр RefFrames формата : 4 кадра
Идентификатор кодека : V_MPEG4/ISO/AVC
Продолжительность : 44 м. 16 с.
Битрейт : 2508 Кбит/сек
Ширина : 1280 пикселей
Высота : 720 пикселей
Соотношение сторон : 16:9
Режим частоты кадров : Постоянный
Частота кадров : 25,000 кадров/сек
Цветовое пространство : YUV
Субдискретизация насыщенности : 4:2:0
Битовая глубина : 8 бит
Тип развёртки : Прогрессивная
Бит/(Пиксели*Кадры) : 0.109
Размер потока : 794 Мбайт (89%)
Default : Да
Forced : Нет

Аудио
Идентификатор : 2
Формат : AC-3
Формат/Информация : Audio Coding 3
Расширение режима : CM (complete main)
Параметр Endianness формата : Big
Идентификатор кодека : A_AC3
Продолжительность : 44 м. 16 с.
Вид битрейта : Постоянный
Битрейт : 256 Кбит/сек
Каналы : 2 канала
Расположение каналов : Front: L R
Частота : 48,0 КГц
Частота кадров : 31,250 кадров/сек (1536 spf)
Метод сжатия : С потерями
Размер потока : 81,1 Мбайт (9%)
Язык : Russian
Default : Да
Forced : Нет

pb.wtf



Скачать Женщина наводит порядок через торрент https://i111.fastpic.ru/big/2020/0321/5e/5401807ab82fe2ff2f01c54611cd865e.jpg Скачать фильм Женщина наводит порядок через торрент бесплантно в хорошем качестве Описание: Анна – сотрудница банка. Пусть пока она считает чужие деньги, но Аня оптимистка, она уверена – у нее все впереди! Вот и личная ... 10 10 5
Торрент: Зарегистрирован [2020-03-22 16:53] · скачан: 47 раз
Статус: √ проверено
Размер: 3.59 GB
Как cкачать? Как скачать Женщина наводит порядок через торрент | qTorrent

% Раздел Тема Автор DL S | L
Наши сериалы [ 6.83 GB ] Женщина наводит порядок / Серии: 1-4 из 4 [2020 WEB-DL 1080p] bober100 Скачать
1 | 0
Наши сериалы [ 2.25 GB ] Женщина наводит порядок / Серии: 1-4 из 4 [2020 WEB-DLRip-AVC] bober100 Скачать
1 | 0
Наши сериалы [ 2.26 GB ] Женщина наводит порядок / Серии: 1-4 из 4 [2020 WEB-DLRip] bober100 Скачать
1 | 0
Наши сериалы [ 2.11 GB ] Женщина наводит порядок / Серии: 1-4 из 4 [2020 SATRip-AVC] aleksan55 Скачать
1 | 0

28-11-2019 20:33  

Отключить всю рекламу на сайте

    Дорогой пользователь! Огромная просьба, поблагодарите релизера, оцените раздачу и оставьте свои комментарий, если Вы скачали Женщина наводит порядок через торрент бесплатно! Внесите свою лепту в развитие PiratBit!
    Комментировать посты могут только пользователи прошедшие не сложную регистрацию
    Показать сообщения:    

    Женщина наводит порядок через торрент
    Скачать бесплатно Женщина наводит порядок
    Женщина наводит порядок скачать торрент
    Женщина наводит порядок смотреть онлайн
    Cкачать фильм Женщина наводит порядок бесплатно
    Женщина наводит порядок скачать торрент в хорошем качестве
    Женщина наводит порядок смотреть онлайн бесплатно в хорошем качестве


    Вы не можете начинать темы
    Вы не можете отвечать на сообщения
    Вы не можете редактировать свои сообщения
    Вы не можете удалять свои сообщения
    Вы не можете голосовать в опросах
    Вы не можете прикреплять файлы к сообщениям
    Вы можете скачивать файлы