2 сезон

iTunes

MVO

1

2 сезон

iTunes

iTunes

1 сезон

RePack

30

Ultimate

ВАЖНО

ИГРА 18+

pack

RePack

MK11
pack

Легкие деньги

RePack

jed

RePack

fifa19

RePack

RDR2

RePack

NEED FOR SPEED™ PAYBACK

4 сезон

9 сезон

Бесстыжие 9 сезон

Все сериалы

все сериалы на PB.wtf

RePack

FAR CRY 5

Anonymous, доброй ночи, мы не успеваем собрать деньги на оплату серверов за декабрь и январь, помогите нам пожалуйста в это трудное время. В качестве благодарности мы отключим Вам всю рекламу на сайте (укажите свой ник в строку Ваше имя)!

×
  
Magnet ссылка

Крейсер / USS Indianapolis: Men of Courage (Марио Ван Пиблз) [2016, боевик, BDRip - HEVC 1080p 10 bit 60 FPS] Дубляж - [Лицензия] pb.wtf

Крейсер через торрент pb.wtf

Раздают: 1 [ 0 KB/s ]
Размер: 3.99 GB | Добавлен: 9 мес. назад | Торрент скачан:92 раза
Скачать  

22-03-2020 19:53 Крейсер Скачать торрент  

Крейсер / USS Indianapolis: Men of Courage
««Based on a true story of survival»»

Год выпуска: 2016
Страна: США
Жанр: боевик,
Продолжительность: 02:09:55
Перевод: Дубляж - [Лицензия]
Режиссер: Марио Ван Пиблз
В ролях:

Николас Кейдж (Captain McVay), Том Сайзмор (McWhorter), Томас Джейн (Lt. Adrian Marks), Мэтт Лантер (Bama), Джеймс Римар (Admiral Parnell), Брайан Прэсли (Waxman), Ютака Такэути (Hashimoto), Джонни Уэктор (Connor), Адам Скотт Миллер (D'Antonio), Коуди Уокер (West), Каллард Харрис (Lt. Standish), Крэйг Тейт (Garrison)
Описание:
Лето 1945 года. До конца Второй мировой оставались считанные недели... Крейсер ВМС США «Индианополис» доставил на американскую военную базу на острове Тиниан боеголовку атомной бомбы. На обратном рейде корабль был торпедирован японцами и пошел ко дну. «SOS!» капитана Маквэя не был услышан. И живые позавидовали мертвым: палящее солнце и зубы акул, жажда и галлюцинации, безумие и адские муки отчаяния...
Мировая премьера: 24 августа 2016

Качество: BDRip 1080p Rip by DD2D3
Исходник: BDRemux 1080p by ExKinoRay
Формат: MKV
Видео: V_MPEGH/ISO/HEVC, 1920x800 (2.40:1), 4004 kbps, 59,940 fps, 0,043 bpp
Аудио: русский / AC3 / 5.1 / 48 kHz / 384 kbps / ||
Навигация по главам: есть


General
Unique ID : 198491904600202986105371298040884711375 (0x95542678ABDD09B0B7326165BEFF4FCF)
Complete name : D:\Крейсер - USS Indianapolis Men of Courage BDRip - HEVC 1080p 10 bit 60 FPS .mkv
Format : Matroska
Format version : Version 4
File size : 3.99 GiB
Duration : 2 h 9 min
Overall bit rate : 4 393 kb/s
Movie name : Rip by from DD2D3
Encoded date : UTC 2020-03-22 19:23:47
Writing application : mkvmerge v10.0.0 ('To Drown In You') 32bit
Writing library : libebml v1.3.4 + libmatroska v1.4.5
Attachments : poster

Video
ID : 1
Format : HEVC
Format/Info : High Efficiency Video Coding
Format profile : Main 10@L4.1@Main
Codec ID : V_MPEGH/ISO/HEVC
Duration : 2 h 9 min
Bit rate : 4 004 kb/s
Width : 1 920 pixels
Height : 800 pixels
Display aspect ratio : 2.40:1
Frame rate mode : Constant
Frame rate : 59.940 (60000/1001) FPS
Color space : YUV
Chroma subsampling : 4:2:0
Bit depth : 10 bits
Bits/(Pixel*Frame) : 0.043
Stream size : 3.63 GiB (91%)
Writing library : x265 2.3+33-0b7d54dbb71a87a0:[Windows][MSVC 1800][64 bit] 10bit: KG7x [x265.ru]
Encoding settings : cpuid=1173503 / frame-threads=2 / numa-pools=4 / wpp / no-pmode / no-pme / no-psnr / no-ssim / log-level=2 / input-csp=1 / input-res=1920x800 / interlace=0 / total-frames=467278 / level-idc=41 / high-tier=1 / uhd-bd=0 / ref=3 / no-allow-non-conformance / no-repeat-headers / annexb / no-aud / no-hrd / info / hash=0 / no-temporal-layers / open-gop / min-keyint=25 / keyint=250 / bframes=4 / b-adapt=2 / b-pyramid / bframe-bias=0 / rc-lookahead=20 / lookahead-slices=5 / scenecut=40 / no-intra-refresh / ctu=64 / min-cu-size=8 / no-rect / no-amp / max-tu-size=32 / tu-inter-depth=1 / tu-intra-depth=1 / limit-tu=0 / rdoq-level=0 / dynamic-rd=0.00 / no-ssim-rd / signhide / no-tskip / nr-intra=0 / nr-inter=0 / no-constrained-intra / strong-intra-smoothing / max-merge=2 / limit-refs=3 / no-limit-modes / me=1 / subme=2 / merange=57 / temporal-mvp / weightp / no-weightb / no-analyze-src-pics / deblock=0:0 / no-sao / no-sao-non-deblock / rd=3 / no-early-skip / no-rskip / no-fast-intra / no-tskip-fast / no-cu-lossless / no-b-intra / rdpenalty=0 / psy-rd=4.00 / psy-rdoq=0.00 / no-rd-refine / analysis-mode=0 / no-lossless / cbqpoffs=0 / crqpoffs=0 / rc=abr / bitrate=4000 / qcomp=0.60 / qpstep=1 / stats-write=0 / stats-read=2 / cplxblur=20.0 / qblur=0.5 / ipratio=1.10 / pbratio=1.00 / aq-mode=0 / aq-strength=0.00 / no-cutree / zone-count=0 / no-strict-cbr / qg-size=64 / rc-grain / qpmax=69 / qpmin=0 / sar=1 / overscan=0 / videoformat=5 / range=0 / colorprim=2 / transfer=2 / colormatrix=2 / chromaloc=0 / display-window=0 / max-cll=0,0 / min-luma=0 / max-luma=1023 / log2-max-poc-lsb=8 / vui-timing-info / vui-hrd-info / slices=1 / opt-qp-pps / opt-ref-list-length-pps / no-multi-pass-opt-rps / scenecut-bias=0.05 / no-opt-cu-delta-qp / no-aq-motion / no-hdr / no-hdr-opt / refine-level=5 / no-limit-sao
Default : Yes
Forced : No

Audio
ID : 2
Format : AC-3
Format/Info : Audio Coding 3
Commercial name : Dolby Digital
Codec ID : A_AC3
Duration : 2 h 9 min
Bit rate mode : Constant
Bit rate : 384 kb/s
Channel(s) : 6 channels
Channel layout : L R C LFE Ls Rs
Sampling rate : 48.0 kHz
Frame rate : 31.250 FPS (1536 SPF)
Compression mode : Lossy
Stream size : 357 MiB (9%)
Language : Russian
Service kind : Complete Main
Default : Yes
Forced : No

Menu
00:00:00.000 : en:00:00:00.000
00:10:14.614 : en:00:10:14.614
00:19:45.184 : en:00:19:45.184
00:29:56.795 : en:00:29:56.795
00:42:51.569 : en:00:42:51.569
00:53:08.185 : en:00:53:08.185
01:07:20.703 : en:01:07:20.703
01:19:03.697 : en:01:19:03.697
01:32:38.219 : en:01:32:38.219
01:43:05.137 : en:01:43:05.137
01:58:02.075 : en:01:58:02.075
скриншот  скриншот  скриншот  скриншот  

© Оформление by DD2D3 pb.wtf



Скачать Крейсер через торрент https://funkyimg.com/i/33izG.jpg Скачать фильм Крейсер через торрент бесплантно в хорошем качестве Описание: Лето 1945 года. До конца Второй мировой оставались считанные недели... Крейсер ВМС США «Индианополис» доставил на американскую ... 10 10 4
Торрент: Зарегистрирован [2020-03-22 19:53] · скачан: 92 раз
Статус: √ проверено
Размер: 3.99 GB
Как cкачать? Как скачать Крейсер через торрент | UTorrent

% Раздел Тема Автор DL S | L
R.G. Resident & PiratVoice - Фильмы, Видео [ 3.47 GB ] Крейсер / USS Indianapolis: Men of Courage [2016 военный BDRip-AVC] - R.G.Resident schultz Скачать
1 | 0
Фильмы 2016 [DVDrip, WEB-DLRip, HDrip] (DUB, MVO) [ 2.18 GB ] Крейсер / USS Indianapolis: Men of Courage [2016 военный BDRip] - [] Twi7ter Скачать
1 | 0
Фильмы 2016 [DVDrip, WEB-DLRip, HDrip] (DUB, MVO) [ 1.46 GB ] Крейсер / USS Indianapolis: Men of Courage [2016 военный BDRip] - [] Twi7ter Скачать
2 | 0
Фильмы (Blu-ray, BD-Remux, HDDVD) [ 22.69 GB ] Крейсер / USS Indianapolis: Men of Courage [2016 военный Blu-Ray RUS] Russian Mafia Скачать
1 | 0
Фильмы (WEB-DL 720p, 1080p) [ 4.27 GB ] Крейсер / USS Indianapolis: Men of Courage [2016 военный WEB-DL 1080p] - -Lexx- Скачать
2 | 0
Фильмы 2016 [DVDrip, WEB-DLRip, HDrip] (DUB, MVO) [ 2.17 GB ] Крейсер / USS Indianapolis: Men of Courage [2016 военный HDRip ""] coc900 Скачать
1 | 0

28-11-2019 20:33  

Отключить всю рекламу на сайте

    Дорогой пользователь! Огромная просьба, поблагодарите релизера, оцените раздачу и оставьте свои комментарий, если Вы скачали Крейсер через торрент бесплатно! Внесите свою лепту в развитие PiratBit!
    Комментировать посты могут только пользователи прошедшие не сложную регистрацию
    Показать сообщения:    

    Крейсер через торрент
    Скачать бесплатно Крейсер
    Крейсер скачать торрент
    Крейсер смотреть онлайн
    Cкачать фильм Крейсер бесплатно
    Крейсер скачать торрент в хорошем качестве
    Крейсер смотреть онлайн бесплатно в хорошем качестве


    Вы не можете начинать темы
    Вы не можете отвечать на сообщения
    Вы не можете редактировать свои сообщения
    Вы не можете удалять свои сообщения
    Вы не можете голосовать в опросах
    Вы не можете прикреплять файлы к сообщениям
    Вы можете скачивать файлы