Anonymous, добрый вечер, присоединяйтесь к нам в Telegram!, здесь всегда актуальный адрес сайта, оперативная поддержка и многое другое!

>

5.5

iTunes

7.4

iTunes

7.9

iTunes

1

7.7

1 сезон

6.8

iTunes

7.3

1 сезон

13

6.7

1 сезон

8.3

RePack

30

ULTIMATE

pack

9.9

Лицензия

ВАЖНО

ИГРА 18+

pack

7.3

RePack

MK11

7.7

RePack

jed

7.8

RePack

fifa19

8.5

RePack

RDR2

RePack

NEED FOR SPEED™ PAYBACK

4 сезон

9 сезон

Бесстыжие 9 сезон

Все сериалы

все сериалы на PB.wtf

RePack

FAR CRY 5

Anonymous, добрый вечер, мы катастрофически не успеваем собрать деньги на оплату серверов, помогите нам пожалуйста 5,10,15р., для нас важна любая помощь . В качестве благодарности мы отключим Вам всю рекламу на сайте (укажите свой ник в строку Ваше имя)!

×
  
Magnet ссылка

Колл-центр / Сезон: 1 / Серии: 1-8 из 8 (Наталья Меркулова, Алексей Чупов) [2020, Драма, мистика, триллер, SATRip] pb.wtf

Колл-центр через торрент pb.wtf

Размер: 5.21 GB | Добавлен: 1 год 6 мес. назад | Торрент скачан:158 раз
Смотреть онлайн Колл-центр | Скачать    Ребята, помогите собрать деньги на оплату серверов!!!

23-03-2020 13:40 Колл-центр Скачать торрент  

Колл-центр Год выпуска: 2020
Страна: Россия
Жанр: Драма, мистика, триллер
Продолжительность: ~ 00:45:00 серия
Перевод: Не требуется
Субтитры: отсутствуют

Режиссер: Наталья Меркулова, Алексей Чупов



В ролях: Павел Табаков, Владимир Яглыч, Юлия Хлынина, Анатолий Белый, Сабина Ахмедова, Мадлен Джабраилова, Никита Тарасов, Аскар Нигамедзянов, Зоя Кайдановская, Полина Пушкарук, Ольга Веникова, Леван Хурция, Стася Милославская, Тарас Епифанцев, Константин Белошапка, Наталья Кудряшова, Алиса Сельникова, Егор Шереметьев, Екатерина Волкова, Антон Ерёмин

Описание: 12 сотрудников офиса колл-центра интернет-магазина для взрослых оказываются заперты на 25-м этаже московского бизнес-центра. Внезапно с ними связываются злоумышленники, называющие себя «мамой» и «папой». Они сообщают, что помещение заминировано. Для того, чтобы бомба не взорвалась раньше срока, работники обязаны выполнять требования преступников. Удастся ли заложникам обезвредить бомбу и спастись, но при этом остаться людьми?

Качество: SATRip
Формат: AVI

Видео: XviD, ~ 1600 Кбит/с, 720x320
Аудио: MP3, 2 ch, 192 Кбит/с
скриншот  скриншот  скриншот  скриншот  

Общее
Полное имя : D:\Koll-centr.S01.XviD.SATRip.25Kuzmich\Koll-centr.s01.e01.XviD.SATRip.25Kuzmich.avi
Формат : AVI
Формат/Информация : Audio Video Interleave
Размер файла : 574 Мбайт
Продолжительность : 43 м. 20 с.
Общий поток : 1852 Кбит/сек
Программа кодирования : VirtualDubMod 1.5.10.3 (build 2550/release)
Библиотека кодирования : VirtualDubMod build 2550/release

Видео
Идентификатор : 0
Формат : MPEG-4 Visual
Профиль формата : Advanced Simple@L5
Параметр BVOP формата : 1
Параметр QPel формата : Нет
Параметр GMC формата : Без точки перехода
Параметр матрицы формата : Default (MPEG)
Идентификатор кодека : XVID
Идентификатор кодека/Подсказка : XviD
Продолжительность : 43 м. 20 с.
Битрейт : 1578 Кбит/сек
Ширина : 720 пикселей
Высота : 320 пикселей
Соотношение сторон : 2,25:1
Частота кадров : 25,000 кадров/сек
Цветовое пространство : YUV
Субдискретизация насыщенности : 4:2:0
Битовая глубина : 8 бит
Тип развёртки : Прогрессивная
Метод сжатия : С потерями
Бит/(Пиксели*Кадры) : 0.274
Размер потока : 489 Мбайт (85%)
Библиотека кодирования : XviD 73

Аудио
Идентификатор : 1
Формат : MPEG Audio
Версия формата : Version 1
Профиль формата : Layer 3
Режим : Joint stereo
Расширение режима : MS Stereo
Идентификатор кодека : 55
Идентификатор кодека/Подсказка : MP3
Продолжительность : 43 м. 20 с.
Вид битрейта : Постоянный
Битрейт : 192 Кбит/сек
Каналы : 2 канала
Частота : 48,0 КГц
Метод сжатия : С потерями
Размер потока : 59,5 Мбайт (10%)
Выравнивание : Соединение по промежуткам
Библиотека кодирования : LAME3.99r
Настройки программы : -m j -V 4 -q 2 -lowpass 18.6 -b 192

Когда раздача ведётся путём добавления новых серий, при каждом добавлении создётся новый торрент. Чтобы начать докачку новой серии, пользователям необходимо сделать следующее:
(1) остановить скачивание,
(2) удалить старый торрент у себя из клиента (старые серии удалять не надо),
(3) скачать новый торрент и запустить его у себя в клиенте вместо старого, при этом указать клиенту путь в старую папку, куда и должно происходить скачивание новых серий.
Ваш клиент при этом должен произвести хеширование (проверку) старой папки (если не производит сам - помогите ему сделать это), и будет докачивать только те серии, которых у вас ещё нет. Старые серии при этом не удаляются, а продолжают раздаваться!
Eсли вы уже удалили старые серии, то предотвратить повторную закачку старых серий можно, отжав галочку в соответсвующих местах при запуске нового торрента. По возможности, желательно не удалять старые серии как можно дольше, чтобы релизёр не столько продолжал раздавать старые серии, а смог сконцентрироваться на новых.
pb.wtf



Скачать Колл-центр через торрент https://img10.lostpic.net/2020/03/23/41fcd51b37ce290dcb7395de5abb82c4.jpg Скачать, смотреть онлайн Колл-центр бесплантно в хорошем качестве Описание: 12 сотрудников офиса колл-центра интернет-магазина для взрослых оказываются заперты на 25-м этаже московского бизнес-центра. ... 9.9 10 14
Торрент: Зарегистрирован [2020-04-02 14:21] · скачан: 158 раз
Статус: √ проверено
Размер: 5.21 GB
Как cкачать? Как скачать Колл-центр через торрент | UTorrent

% Раздел Тема Автор DL S | L
TNT serials [ 4.69 GB ] Колл-центр / Сезон: 1 / Серии: 1-8 из 8 [2020 WEBRip] bober100 Скачать
2 | 0
TNT serials [ 12.79 GB ] Колл-центр / Сезон: 1 / Серии: 1-8 из 8 [2020 WEBRip 1080p] bober100 Скачать
1 | 0
TNT serials [ 16.44 GB ] Колл-центр / Сезон: 1 / Серии: 1-8 из 8 [2020 HDTV 1080i] bober100 Скачать
1 | 0
TNT serials [ 6.26 GB ] Колл-центр / Сезон: 1 / Серии: 1-8 из 8 [2020 WEBRip-AVC] bober100 Скачать
5 | 0
TNT serials [ 8.68 GB ] Колл-центр / Сезон: 1 / Серии: 1-8 из 8 [2020 WEBRip 720p] bober100 Скачать
1 | 0


Последний раз редактировалось: bober100 (2020-04-02 14:20), всего редактировалось 8 раз(а)

28-11-2019 20:33  

Отключить всю рекламу на сайте

23-03-2020 14:17 Колл-центр Скачать торрент  

Почему на тнт-премьере нет ещё серии ?pb.wtf



26-03-2020 16:37 Колл-центр Скачать торрент  

Kuraev писал(а):

Почему на тнт-премьере нет ещё серии ?

Ахахах, так радуйтесь)pb.wtf



29-03-2020 21:37 Колл-центр Скачать торрент  

А норм такой сериал оказался. Правда героям не очень сопереживаешь, но норм.pb.wtf



02-04-2020 19:39 Колл-центр Скачать торрент  

Зачет. Если не спи...ли сценарий как в основном это происходит то зачет +pb.wtf



    Дорогой пользователь! Огромная просьба, поблагодарите релизера, оцените раздачу и оставьте свои комментарий, если Вы скачали Колл-центр через торрент бесплатно!
    Комментировать посты могут только пользователи прошедшие не сложную регистрацию
    Показать сообщения:    

    Колл-центр через торрент
    Скачать бесплатно Колл-центр
    Колл-центр скачать торрент
    Колл-центр смотреть онлайн
    Cкачать фильм Колл-центр бесплатно
    Колл-центр скачать торрент в хорошем качестве
    Колл-центр смотреть онлайн бесплатно в хорошем качестве


    Вы не можете начинать темы
    Вы не можете отвечать на сообщения
    Вы не можете редактировать свои сообщения
    Вы не можете удалять свои сообщения
    Вы не можете голосовать в опросах
    Вы не можете прикреплять файлы к сообщениям
    Вы можете скачивать файлы