Anonymous, добрый вечер, присоединяйтесь к нам в Telegram!, здесь всегда актуальный адрес сайта, оперативная поддержка и многое другое!

>

5.5

iTunes

7.4

iTunes

7.9

iTunes

1

7.7

1 сезон

6.8

iTunes

7.3

1 сезон

13

6.7

1 сезон

8.3

RePack

30

ULTIMATE

pack

9.9

Лицензия

ВАЖНО

ИГРА 18+

pack

7.3

RePack

MK11

7.7

RePack

jed

7.8

RePack

fifa19

8.5

RePack

RDR2

RePack

NEED FOR SPEED™ PAYBACK

4 сезон

9 сезон

Бесстыжие 9 сезон

Все сериалы

все сериалы на PB.wtf

RePack

FAR CRY 5

Anonymous, добрый вечер, мы катастрофически не успеваем собрать деньги на оплату серверов, помогите нам пожалуйста 5,10,15р., для нас важна любая помощь . В качестве благодарности мы отключим Вам всю рекламу на сайте (укажите свой ник в строку Ваше имя)!

×
  
Magnet ссылка

Колл-центр / Сезон: 1 / Серии: 1-8 из 8 (Наталья Меркулова, Алексей Чупов) [2020, Драма, мистика, триллер, WEBRip 720p] pb.wtf

Колл-центр через торрент pb.wtf

Размер: 8.68 GB | Добавлен: 1 год 6 мес. назад | Торрент скачан:188 раз
Смотреть онлайн Колл-центр | Скачать    Ребята, помогите собрать деньги на оплату серверов!!!

23-03-2020 19:21 Колл-центр Скачать торрент  

Колл-центр Год выпуска: 2020
Страна: Россия
Жанр: Драма, мистика, триллер
Продолжительность: ~ 00:45:00 серия
Перевод: Не требуется
Субтитры: отсутствуют

Режиссер: Наталья Меркулова, Алексей Чупов



В ролях: Павел Табаков, Владимир Яглыч, Юлия Хлынина, Анатолий Белый, Сабина Ахмедова, Мадлен Джабраилова, Никита Тарасов, Аскар Нигамедзянов, Зоя Кайдановская, Полина Пушкарук, Ольга Веникова, Леван Хурция, Стася Милославская, Тарас Епифанцев, Константин Белошапка, Наталья Кудряшова, Алиса Сельникова, Егор Шереметьев, Екатерина Волкова, Антон Ерёмин

Описание: 12 сотрудников офиса колл-центра интернет-магазина для взрослых оказываются заперты на 25-м этаже московского бизнес-центра. Внезапно с ними связываются злоумышленники, называющие себя «мамой» и «папой». Они сообщают, что помещение заминировано. Для того, чтобы бомба не взорвалась раньше срока, работники обязаны выполнять требования преступников. Удастся ли заложникам обезвредить бомбу и спастись, но при этом остаться людьми?

Качество: WEBRip 720p
Формат: MKV

Видео: MPEG-4 AVC, ~ 3000 Кбит/с, 1280x576
Аудио: AC3, 2 ch, 192 Кбит/с
скриншот  скриншот  скриншот  скриншот  

Общее
Уникальный идентификатор : 170601322713345216050341505680321321864 (0x80589E9DE17DA6329F6C854485DC9B88)
Полное имя : D:\Koll.centr.2019.WEB-DL.(720p).ExKinoRay\Koll.centr.e01.2019.WEB-DL.(720p).ExKinoRay.mkv
Формат : Matroska
Версия формата : Version 2
Размер файла : 990 Мбайт
Продолжительность : 44 м. 44 с.
Режим общего битрейта : Переменный
Общий поток : 3095 Кбит/сек
Дата кодирования : UTC 2020-03-23 19:12:15
Программа кодирования : mkvmerge v5.8.0 ('No Sleep / Pillow') built on Sep 2 2012 15:37:04
Библиотека кодирования : libebml v1.2.3 + libmatroska v1.3.0

Видео
Идентификатор : 1
Формат : AVC
Формат/Информация : Advanced Video Codec
Профиль формата : High@L3.1
Параметр CABAC формата : Да
Параметр RefFrames формата : 1 кадр
Идентификатор кодека : V_MPEG4/ISO/AVC
Продолжительность : 44 м. 44 с.
Вид битрейта : Переменный
Битрейт : 2941 Кбит/сек
Максимальный битрейт : 3000 Кбит/сек
Ширина : 1280 пикселей
Высота : 576 пикселей
Соотношение сторон : 2,222
Режим частоты кадров : Постоянный
Частота кадров : 25,000 кадров/сек
Цветовое пространство : YUV
Субдискретизация насыщенности : 4:2:0
Битовая глубина : 8 бит
Тип развёртки : Прогрессивная
Бит/(Пиксели*Кадры) : 0.154
Размер потока : 909 Мбайт (92%)
Язык : Russian
Default : Да
Forced : Нет

Аудио
Идентификатор : 2
Формат : AC-3
Формат/Информация : Audio Coding 3
Расширение режима : CM (complete main)
Параметр Endianness формата : Big
Идентификатор кодека : A_AC3
Продолжительность : 44 м. 44 с.
Вид битрейта : Постоянный
Битрейт : 192 Кбит/сек
Каналы : 2 канала
Расположение каналов : Front: L R
Частота : 48,0 КГц
Частота кадров : 31,250 кадров/сек (1536 spf)
Метод сжатия : С потерями
Размер потока : 61,4 Мбайт (6%)
Язык : Russian
Default : Да
Forced : Нет

Когда раздача ведётся путём добавления новых серий, при каждом добавлении создётся новый торрент. Чтобы начать докачку новой серии, пользователям необходимо сделать следующее:
(1) остановить скачивание,
(2) удалить старый торрент у себя из клиента (старые серии удалять не надо),
(3) скачать новый торрент и запустить его у себя в клиенте вместо старого, при этом указать клиенту путь в старую папку, куда и должно происходить скачивание новых серий.
Ваш клиент при этом должен произвести хеширование (проверку) старой папки (если не производит сам - помогите ему сделать это), и будет докачивать только те серии, которых у вас ещё нет. Старые серии при этом не удаляются, а продолжают раздаваться!
Eсли вы уже удалили старые серии, то предотвратить повторную закачку старых серий можно, отжав галочку в соответсвующих местах при запуске нового торрента. По возможности, желательно не удалять старые серии как можно дольше, чтобы релизёр не столько продолжал раздавать старые серии, а смог сконцентрироваться на новых.
pb.wtf



Скачать Колл-центр через торрент https://img10.lostpic.net/2020/03/23/7a77b472f838aa9b23314f975d45f1c9.jpg Скачать, смотреть онлайн Колл-центр бесплантно в хорошем качестве Описание: 12 сотрудников офиса колл-центра интернет-магазина для взрослых оказываются заперты на 25-м этаже московского бизнес-центра. ... 9.2 10 11
Торрент: Зарегистрирован [2020-04-02 19:45] · скачан: 188 раз
Статус: √ проверено
Размер: 8.68 GB
Как cкачать? Как скачать Колл-центр через торрент | UTorrent

% Раздел Тема Автор DL S | L
TNT serials [ 4.69 GB ] Колл-центр / Сезон: 1 / Серии: 1-8 из 8 [2020 WEBRip] bober100 Скачать
3 | 0
TNT serials [ 5.21 GB ] Колл-центр / Сезон: 1 / Серии: 1-8 из 8 [2020 SATRip] bober100 Скачать
1 | 0
TNT serials [ 12.79 GB ] Колл-центр / Сезон: 1 / Серии: 1-8 из 8 [2020 WEBRip 1080p] bober100 Скачать
1 | 0
TNT serials [ 16.44 GB ] Колл-центр / Сезон: 1 / Серии: 1-8 из 8 [2020 HDTV 1080i] bober100 Скачать
1 | 0
TNT serials [ 6.26 GB ] Колл-центр / Сезон: 1 / Серии: 1-8 из 8 [2020 WEBRip-AVC] bober100 Скачать
6 | 0

28-11-2019 20:33  

Отключить всю рекламу на сайте

    Дорогой пользователь! Огромная просьба, поблагодарите релизера, оцените раздачу и оставьте свои комментарий, если Вы скачали Колл-центр через торрент бесплатно!
    Комментировать посты могут только пользователи прошедшие не сложную регистрацию
    Показать сообщения:    

    Колл-центр через торрент
    Скачать бесплатно Колл-центр
    Колл-центр скачать торрент
    Колл-центр смотреть онлайн
    Cкачать фильм Колл-центр бесплатно
    Колл-центр скачать торрент в хорошем качестве
    Колл-центр смотреть онлайн бесплатно в хорошем качестве


    Вы не можете начинать темы
    Вы не можете отвечать на сообщения
    Вы не можете редактировать свои сообщения
    Вы не можете удалять свои сообщения
    Вы не можете голосовать в опросах
    Вы не можете прикреплять файлы к сообщениям
    Вы можете скачивать файлы