Ссылка на приватное зеркало нашего сайта всего за 1$. Внимание количество ограничено!!!

2 сезон

iTunes

1 сезон

1

2 сезон

2 сезон

iTunes

1 сезон

RePack

30

Ultimate

ВАЖНО

ИГРА 18+

pack

RePack

MK11
pack

Забери бонус

RePack

jed

!!Акция!!

Alien_Rage

RePack

fifa19

RePack

Assassins Creed: Odyssey

RePack

NEED FOR SPEED™ PAYBACK

4 сезон

9 сезон

Бесстыжие 9 сезон

Все сериалы

все сериалы на PB.wtf

RePack

FAR CRY 5
  

Маяк / The Lighthouse (Роберт Эггерс) [2019 г., Ужасы, фэнтези, драма, детектив, BD Remux, Дубляж (Лицензия)] pb.wtf

Маяк через торрент pb.wtf

Размер: 25.19 GB | Добавлен: 8 мес. назад | Торрент скачан:32 раза
Скачать  

24-03-2020 12:56 Маяк Скачать торрент  

Маяк / The Lighthouse
Год выпуска: 2019
Страна: США
Жанр: Ужасы, фэнтези, драма, детектив
Продолжительность: 01:49:21
Перевод: Дубляж (Лицензия) +Оригинал
Субтитры: Русские,английские

Режиссер: Роберт Эггерс

В ролях: Уиллем Дефо, Роберт Паттинсон, Валерия Караман

Описание: 1890-е годы. Молодой Ифраим Уинслоу приезжает на отдалённый остров работать новым ассистентом смотрителя маяка. Его начальник - хромоногий и бородатый Томас Уэйк. Он обращается с помощником как с личным рабом и запрещает ему подниматься на сам маяк и управлять светом. Ифраиму предстоит провести в компании Уэйка четыре тяжёлые недели, в течение которых спокойный парень изменится навсегда.

Качество: BD Remux
Формат: MKV
Видео кодек: AVC
Аудио кодек: AC3-DTS-DTS-HD MA
Видео: MPEG-4 AVC, (1920x1080),28 000 Кбит/с, 23.976 кадра/сек
Аудио#1: AC3, 6 ch, 448 kbps (Rus) 48.0 KHz Дубляж (Лицензия)
Аудио#2: DTS, 6 ch, 768 kbps (Rus) 48.0 KHz Дубляж (Лицензия)
Аудио#3: DTS-HD MA, 6 ch, 3763 kbps (Eng) 48.0 KHz Оригинал
скриншот   скриншот   скриншот  

Имя файла: The.Lighthouse.2019.Lic.BDREMUX.1080p.seleZen.mkv
Формат файла: .mkv (Matroska)
Размер файла: 25,19 GB (27 046 216 305 bytes)
Длительность: 1h 49mn
Навигация по главам: Есть
Битрейт (все потоки): 33.0 Mbps
Тип битрейта (все потоки): Variable
Файл создан: UTC 2020-03-24 09:19:05
Создан при помощи: mkvmerge v40.0.0 ('Old Town Road + Pony') 64-bit
Использовалась библиотека: libebml v1.3.9 + libmatroska v1.5.2
Обложка: Отсутствует
:
Название: The Lighthouse 2019
:
Тип потока: Видео
Длительность: 01:49:21
Кодек: AVC
Кодек/описание: Advanced Video Codec
Кодек/профиль: High@L4.1
Кодек/ID: V_MPEG4/ISO/AVC
Кодек/CABAC: Yes
Кодек/ReFrames: 4 frames
Размеры изображения: 1920 x 1080 (16:9)
Частота кадров: 23.976 fps
Частота кадров/тип: Constant
Битрейт/макс: 32.0 Mbps
Битрейт/тип: VBR
Цветовое пространство: YUV
Тип развёртки: Progressive
Колориметрия: 4:2:0
Глубина: 8 bits
:
Тип потока: Звук #1
Язык: Russian
Название: Dub [License]
Длительность: 01:49:21.568
Кодек: DTS
Кодек/описание: Digital Theater Systems
Кодек/ID: A_DTS
Частота дискретизации: 48.0 KHz
Каналов: 6 channels
Битрейт: 768 Kbps
Битрейт/тип: Constant
Размер потока: 601 MiB (2%)
Глубина: 24 bits
Метод сжатия: Lossy
:
Тип потока: Звук #2
Язык: Russian
Название: Dub [License]
Длительность: 01:49:21.568
Кодек: AC-3
Кодек/описание: Audio Coding 3
Кодек/ID: A_AC3
Частота дискретизации: 48.0 KHz
Каналов: 6 channels
Битрейт: 448 Kbps
Битрейт/тип: Constant
Размер потока: 350 MiB (1%)
Глубина: 16 bits
Метод сжатия: Lossy
:
Тип потока: Звук #3
Язык: English
Название: Original
Длительность: 01:49:21.568
Кодек: DTS
Кодек/описание: Digital Theater Systems
Кодек/профиль: MA / Core
Кодек/ID: A_DTS
Частота дискретизации: 48.0 KHz
Каналов: 6 channels
Битрейт: Unknown / 1 509 Kbps
Битрейт/тип: Variable
Глубина: 24 bits
Метод сжатия: Lossless / Lossy
:
Тип потока: Субтитры #1
Язык: Russian
Формат: UTF-8
Формат/подробно: UTF-8 Plain Text
Название: Forced [Lic.]
:
Тип потока: Субтитры #2
Язык: Russian
Формат: UTF-8
Формат/подробно: UTF-8 Plain Text
Название: Full [Notabenoid / StasSlender]
:
Тип потока: Субтитры #3
Язык: Russian
Формат: UTF-8
Формат/подробно: UTF-8 Plain Text
Название: Full [FOCS]
:
Тип потока: Субтитры #4
Язык: Russian
Формат: UTF-8
Формат/подробно: UTF-8 Plain Text
Название: Full [Темное Вселенниво / Omen333]
:
Тип потока: Субтитры #5
Язык: English
Формат: UTF-8
Формат/подробно: UTF-8 Plain Text
Название: Full
:
Тип потока: Субтитры #6
Язык: English
Формат: UTF-8
Формат/подробно: UTF-8 Plain Text
Название: SDH

pb.wtf



Скачать Маяк через торрент http://pic1.kartinco.top/images/12/zbvrc.jpg Скачать фильм Маяк через торрент бесплантно в хорошем качестве Описание: 1890-е годы. Молодой Ифраим Уинслоу приезжает на отдалённый остров работать новым ассистентом смотрителя маяка. Его начальник - ... 9.5 10 4
Info! Золотая раздача, скачанное не засчитывается.
Торрент: Зарегистрирован [2020-03-24 12:56] · скачан: 32 раз
Статус: √ проверено
Размер: 25.19 GB
Как cкачать? Как скачать Маяк через торрент | qTorrent

% Раздел Тема Автор DL S | L
Фильмы 2019-2020 [DVDrip, WEB-DLRip, HDrip] (DUB, MVO) [ 1.46 GB ] Маяк / The Lighthouse [2019 BDRip] - [] Twi7ter Скачать
45 | 1
Фильмы [HD 720p, 1080p] (Хороший звук DUB, MVO) [ 6.68 GB ] Маяк / The Lighthouse [2019 BDRip 720p] MVO [HDRezka Studio] +2xAVO bober100 Скачать
2 | 0
Фильмы [HD 720p, 1080p] (Хороший звук DUB, MVO) [ 14.25 GB ] Маяк / The Lighthouse [2019 BDRip 1080p] MVO [HDRezka Studio] +2xAVO bober100 Скачать
1 | 0
Фильмы с авторской озвучкой [ 1.46 GB ] Маяк / The Lighthouse [2019 BDRip] AVO [Михаил Яроцкий] Twi7ter Скачать
10 | 1
Фильмы с авторской озвучкой [ 1.46 GB ] Маяк / The Lighthouse [2019 BDRip] AVO [Юрий Сербин] Twi7ter Скачать
5 | 1
Фильмы с авторской озвучкой [ 1.46 GB ] Маяк / The Lighthouse [2019 BDRip] [AVO] killermax2013 Скачать
1 | 0
Фильмы 2019-2020 [DVDrip, WEB-DLRip, HDrip] (DUB, MVO) [ 1.46 GB ] Маяк / The Lighthouse [2019 BDRip] MVO [HDRezka Studio] bober100 Скачать
4 | 0

28-11-2019 20:33  

Отключить всю рекламу на сайте

    Дорогой пользователь! Огромная просьба, поблагодарите релизера, оцените раздачу и оставьте свои комментарий, если Вы скачали Маяк через торрент бесплатно! Внесите свою лепту в развитие PiratBit!
    Комментировать посты могут только пользователи прошедшие не сложную регистрацию
    Показать сообщения:    

    Маяк через торрент
    Скачать бесплатно Маяк
    Маяк скачать торрент
    Маяк смотреть онлайн
    Cкачать фильм Маяк бесплатно
    Маяк скачать торрент в хорошем качестве
    Маяк смотреть онлайн бесплатно в хорошем качестве


    Вы не можете начинать темы
    Вы не можете отвечать на сообщения
    Вы не можете редактировать свои сообщения
    Вы не можете удалять свои сообщения
    Вы не можете голосовать в опросах
    Вы не можете прикреплять файлы к сообщениям
    Вы можете скачивать файлы