2 сезон

iTunes

MVO

1

2 сезон

iTunes

iTunes

1 сезон

RePack

30

Новинка

ВАЖНО

ИГРА 18+

pack

RePack

MK11
pack

Легкие деньги

RePack

jed

RePack

fifa19

RePack

RDR2

RePack

NEED FOR SPEED™ PAYBACK

4 сезон

9 сезон

Бесстыжие 9 сезон

Все сериалы

все сериалы на PB.wtf

RePack

FAR CRY 5

Anonymous, доброй ночи, мы не успеваем собрать деньги на оплату серверов за декабрь и январь, помогите нам пожалуйста в это трудное время. В качестве благодарности мы отключим Вам всю рекламу на сайте (укажите свой ник в строку Ваше имя)!

×
  
Magnet ссылка

Голубая Бездна / Le Grand Bleu (Люк Бессон) [1988 г., драма, приключения, спорт, BDRip 720p / 60 FPS, Профессиональный (многоголосый)] от R.G. HD-Films pb.wtf

Голубая Бездна через торрент pb.wtf

Размер: 5.56 GB | Добавлен: 9 мес. назад | Торрент скачан:58 раз
Скачать  

24-03-2020 14:15 Голубая Бездна Скачать торрент  

Голубая Бездна / Le Grand Bleu
Год выпуска: 1988
Страна: Франция, США, Италия
Жанр: драма, приключения, спорт
Продолжительность: 02:48:19
Перевод: Профессиональный (многоголосый)
Субтитры: Russian

Режиссер: Люк Бессон

Бюджет: FRF 80 000 000
Премьера в мире: 11 мая 1988

rating

В ролях: Розанна Аркетт, Жан-Марк Барр, Жан Рено, Пол Шенар, Серджио Кастеллитто, Жан Буиз, Марк Дюре, Гриффин Данн, Валентина Варгас, Кимберли Бек, Патрик Фонтана, Алессандра Ваццолер, Джеффри Кэри, Брюс Гуэрра-Бертело, Грегори Форстнер, Андреас Вутсинас, Пьер-Ален Де Гарригес, Клод Робен, Клод Бессон, Марика Жеводен, Жан Руийе, Пьер Семмлер, Жак Леви, Эрик До, Андре Жерме, Рональд Теухи, Розарио Кампезе, Константин Александров, Франко Диоджене, Тредесса Далтон, Пьер-Ален де Гарригю, Пол Херман, Николя Мальто, Марк Планшон, Люк Бессон, Кристиан Газио, Валентина Кастеллани

Описание: Два друга - Энцо Молинари и Жак Майоль - вместе росли на одном из греческих островов. Отец Жака, ныряльщик, погиб при сборе устриц из-за неисправности водолазного оборудования. Проходят годы, мальчики уже выросли и снова встречаются после нескольких лет разлуки. Оба стали ныряльщиками на глубину без воздуха, и соревнование на чемпионатах мира практически ведется только между ними.Симпатичная работница страхового агентства Джоан, влюбляется в Жака с первого взгляда и едет за ним из Перу в Сицилию, где и становится свидетельницей начала опасного поединка между друзьями. От Жака она уже ждет ребенка. А друзья погружаются все на большую и большую глубину. Пройдена отметка в 120 метров. Для Жака и Энцо голубая бездна лучше, чем жизнь на земле.

Доп. информация: Режиссерская версия / Director's Cut

Качество: BDRip 720p / 60 FPS
Формат: MKV
Видео кодек: H.264
Аудио кодек: AC3
Видео: x264, 1280 x 544 ( 2,35:1 ), 4337 kbps, 60,000 fps, ( 0.104 bpp)
Аудио#1: Русский, AC-3, 48.0 KHz, 6 ch, 384 Kbps ( MVO )
Релиз от:

скриншот   скриншот   скриншот   скриншот   скриншот   скриншот  Автор рипа: slaventi-69
x264 [info]: frame I:3177 Avg QP:15.10 size: 93282
x264 [info]: frame P:159201 Avg QP:18.10 size: 21754
x264 [info]: frame B:443003 Avg QP:22.87 size: 3860
x264 [info]: consecutive B-frames: 4.2% 3.7% 11.0% 25.0% 44.4% 11.7%


Общее
Уникальный идентификатор : 230887438344245998382358388201430431742 (0xADB34D99DCC8D0970F8E29B39DEBB7FE)
Полное имя : F:\Le.grand.bleu.(1988).BDRip.720p.(60 Fps).mkv
Формат : Matroska
Версия формата : Version 4
Размер файла : 5,56 Гбайт
Продолжительность : 2 ч. 48 м.
Общий поток : 4730 Кбит/сек
Название фильма : Голубая бездна / Le grand bleu (1988) BDRip 720p (60 Fps)
Дата кодирования : UTC 2020-03-22 10:52:19
Программа кодирования : mkvmerge v42.0.0 ('Overtime') 64-bit
Библиотека кодирования : libebml v1.3.10 + libmatroska v1.5.2

Видео
Идентификатор : 1
Формат : AVC
Формат/Информация : Advanced Video Codec
Профиль формата : High@L4.1
Настройки формата : CABAC / 8 Ref Frames
Параметр CABAC формата : Да
Параметр RefFrames формата : 8 кадров
Идентификатор кодека : V_MPEG4/ISO/AVC
Продолжительность : 2 ч. 48 м.
Битрейт : 4337 Кбит/сек
Ширина : 1280 пикселей
Высота : 544 пикселя
Соотношение сторон : 2,35:1
Режим частоты кадров : Постоянный
Частота кадров : 60,000 кадров/сек
Цветовое пространство : YUV
Субдискретизация насыщенности : 4:2:0
Битовая глубина : 8 бит
Тип развёртки : Прогрессивная
Бит/(Пиксели*Кадры) : 0.104
Размер потока : 5,09 Гбайт (92%)
Заголовок : slaventi-69 ( R.G. HD-Films | 60 fps )
Библиотека кодирования : x264 core 130 r2273 b3065e6
Настройки программы : cabac=1 / ref=8 / deblock=1:-1:-1 / analyse=0x3:0x133 / me=umh / subme=9 / psy=1 / psy_rd=1.00:0.00 / mixed_ref=1 / me_range=28 / chroma_me=1 / trellis=2 / 8x8dct=1 / cqm=0 / deadzone=21,11 / fast_pskip=0 / chroma_qp_offset=-2 / threads=6 / lookahead_threads=4 / sliced_threads=0 / nr=0 / decimate=1 / interlaced=0 / bluray_compat=0 / constrained_intra=0 / bframes=5 / b_pyramid=2 / b_adapt=2 / b_bias=0 / direct=3 / weightb=1 / open_gop=0 / weightp=2 / keyint=250 / keyint_min=25 / scenecut=40 / intra_refresh=0 / rc_lookahead=50 / rc=crf / mbtree=1 / crf=16.5 / qcomp=0.60 / qpmin=0 / qpmax=69 / qpstep=4 / ip_ratio=1.40 / aq=1:1.00
Язык : French
Default : Да
Forced : Нет

Аудио
Идентификатор : 2
Формат : AC-3
Формат/Информация : Audio Coding 3
Коммерческое название : Dolby Digital
Идентификатор кодека : A_AC3
Продолжительность : 2 ч. 48 м.
Вид битрейта : Постоянный
Битрейт : 384 Кбит/сек
Каналы : 6 каналов
Channel layout : L R C LFE Ls Rs
Частота : 48,0 КГц
Частота кадров : 31,250 кадров/сек (1536 SPF)
Битовая глубина : 16 бит
Метод сжатия : С потерями
Размер потока : 462 Мбайт (8%)
Заголовок : MVO
Язык : Russian
ServiceKind/String : Complete Main
Default : Да
Forced : Нет

Текст
Идентификатор : 3
Формат : PGS
Режим смешивания : zlib
Идентификатор кодека : S_HDMV/PGS
Идентификатор кодека/Информация : Picture based subtitle format used on BDs/HD-DVDs
Продолжительность : 2 ч. 43 м.
Битрейт : 15,1 Кбит/сек
ElementCount : 2049
Размер потока : 17,6 Мбайт (0%)
Заголовок : русские
Язык : Russian
Default : Да
Forced : Нет

Просьба к переливающим на другие сайты, в оформлении указывайте пожалуйста авторство группы R.G. HD-Films pb.wtf



Скачать Голубая Бездна через торрент http://ecx.images-amazon.com/images/I/51H4sm115WL.jpg Скачать фильм Голубая Бездна через торрент бесплантно в хорошем качестве Описание: Два друга - Энцо Молинари и Жак Майоль - вместе росли на одном из греческих островов. Отец Жака, ныряльщик, погиб при сборе ... 8.6 10 5
Торрент: Зарегистрирован [2020-03-24 14:15] · скачан: 58 раз
Статус: √ проверено
Размер: 5.56 GB
Как cкачать? Как скачать Голубая Бездна через торрент | UTorrent

28-11-2019 20:33  

Отключить всю рекламу на сайте

24-03-2020 14:19 Голубая Бездна Скачать торрент  

О да!!! Это шедевр!!! Очень глубокая мысль фильма! Спасибо огромное автору! И больше желания и возможности на подобные релизы!pb.wtf



24-03-2020 14:25 Голубая Бездна Скачать торрент  

slaventi-69, хотел спросить. Есть ли у тебя желание дополнить антологии своих коллег по цеху кодировки последними частями? Такие как звездные войны, Миссия не выполнима, Крепкий орешек, Люди в чёрном, Форсаж, Терминатор и т.д.pb.wtf



24-03-2020 14:31 Голубая Бездна Скачать торрент  

По возможности может и сделаю, но скорее всего перезаливать торенты не буду, просто со временем выложу отдельно фильмы.pb.wtf



24-03-2020 17:56 Голубая Бездна Скачать торрент  

slaventi-69 писал(а):

По возможности может и сделаю, но скорее всего перезаливать торенты не буду, просто со временем выложу отдельно фильмы.

Перезаливать не надо! Вполне хватит добавить недостающие части отдельно! За что тебе большой респект и уважуха! pb.wtf



    Дорогой пользователь! Огромная просьба, поблагодарите релизера, оцените раздачу и оставьте свои комментарий, если Вы скачали Голубая Бездна через торрент бесплатно! Внесите свою лепту в развитие PiratBit!
    Комментировать посты могут только пользователи прошедшие не сложную регистрацию
    Показать сообщения:    

    Голубая Бездна через торрент
    Скачать бесплатно Голубая Бездна
    Голубая Бездна скачать торрент
    Голубая Бездна смотреть онлайн
    Cкачать фильм Голубая Бездна бесплатно
    Голубая Бездна скачать торрент в хорошем качестве
    Голубая Бездна смотреть онлайн бесплатно в хорошем качестве


    Вы не можете начинать темы
    Вы не можете отвечать на сообщения
    Вы не можете редактировать свои сообщения
    Вы не можете удалять свои сообщения
    Вы не можете голосовать в опросах
    Вы не можете прикреплять файлы к сообщениям
    Вы можете скачивать файлы