Ссылка на приватное зеркало всего за 1$. Внимание количество ограничено!!!

iTunes

iTunes

iTunes

1

iTunes

iTunes

iTunes

iTunes

iTunes

30
pack

Новость дня

ВАЖНО

!!Акция!!

Alien_RageХит недели

RePack

Resident Evil 21

ИГРА 18+

pack

RePack

jed

!!Акция!!

Alien_Rage

RePack

fifa19

RePack

Assassins Creed: Odyssey

RePack

NEED FOR SPEED™ PAYBACK

4 сезон

9 сезон

Бесстыжие 9 сезон

Все сериалы

все сериалы на PB.wtf

RePack

FAR CRY 5
  

Цепь убийств / Kill Chain (Кен Сэнзел) [2019 г., боевик, триллер, HDRip, Профессиональный многоголосый закадровый"iTunes"] pb.wtf

Цепь убийств через торрент pb.wtf

Раздают: 3 [ 0 KB/s ]
Размер: 707 MB | Добавлен: 15 д. назад | Торрент скачан:58 раз
Скачать  

24-03-2020 18:43 Цепь убийств Скачать торрент  

Цепь убийств / Kill Chain
Год выпуска: 2019
Страна: США / Cinetel Films, ETA Films, Killing Link Productions
Жанр: боевик, триллер
Продолжительность: 01:31:40
Перевод: Профессиональный многоголосый закадровый (iTunes)

Режиссер: Кен Сэнзел

rating

В ролях: Николас Кейдж, Энрико Колантони, Райан Квантен, Анабель Акоста, Алими Баллард, Эдди Мартинес, Энджи Сепеда, Джон Мак, Луна Бакстер, Педро Кальво

Описание: Однажды судьба сводит вместе в одном месте трёх незнакомых между собой людей. Они не понимают, почему оказались не в том месте и не в то время, но пытаются найти причину того, что их объединяет. Однако вместо того, чтоб разобраться в происходящем, вся троица становится невольными участниками вооружённого кровавого конфликта, последствия которого могут привести к печальным событиям.

Качество: HDRip
Формат: AVI
Видео кодек: DivX
Аудио кодек: MP3
Видео: 640x344 (1.86:1), 23.976 fps, DivX Codec 4.x ~940 kbps avg, 0.18 bit/pixel
Аудио: 48 kHz, MPEG Layer 3, 2 ch, ~128.00 kbps avg
скриншот   скриншот   скриншот   скриншот   скриншот   скриншот   скриншот   скриншот  

Общее
Полное имя : F:\ФИЛЬМЫ\Цепь убийств.2019.HDRip.avi
Формат : AVI
Формат/Информация : Audio Video Interleave
Размер файла : 707 Мбайт
Продолжительность : 1 ч. 31 м.
Общий поток : 1078 Кбит/сек
Программа кодирования : VirtualDubMod 1.5.10.3 | www.virtualdub-fr.org || (build 2550/release)
Библиотека кодирования : VirtualDubMod build 2550/release

Видео
Идентификатор : 0
Формат : MPEG-4 Visual
Профиль формата : Advanced Simple@L5
Настройки формата : BVOP3 / GMC3 / QPel
Параметр BVOP формата : 3
Параметр QPel формата : Да
Параметр GMC формата : 3 точки перехода
Параметр матрицы формата : Default (MPEG)
Идентификатор кодека : DIVX
Идентификатор кодека/Информация : Project Mayo
Идентификатор кодека/Подсказка : DivX 4
Продолжительность : 1 ч. 31 м.
Битрейт : 941 Кбит/сек
Ширина : 640 пикселей
Высота : 344 пикселя
Соотношение сторон : 1,85:1
Частота кадров : 23,976 (24000/1001) кадра/сек
Цветовое пространство : YUV
Субдискретизация насыщенности : 4:2:0
Битовая глубина : 8 бит
Тип развёртки : Прогрессивная
Метод сжатия : С потерями
Бит/(Пиксели*Кадры) : 0.178
Размер потока : 617 Мбайт (87%)
Библиотека кодирования : XviD 1.2.1 (UTC 2008-12-04)

Аудио
Идентификатор : 1
Формат : MPEG Audio
Версия формата : Version 1
Профиль формата : Layer 3
Настройки формата : Joint stereo / MS Stereo
Идентификатор кодека : 55
Идентификатор кодека/Подсказка : MP3
Продолжительность : 1 ч. 31 м.
Вид битрейта : Постоянный
Битрейт : 128 Кбит/сек
Каналы : 2 канала
Частота : 48,0 КГц
Частота кадров : 41,667 кадра/сек (1152 SPF)
Метод сжатия : С потерями
Размер потока : 83,8 Мбайт (12%)
Выравнивание : Соединение по промежуткам
Продолжительность промежутка : 42 мс. (1,00 видеокадр)
Время предзагрузки промежутка : 504 мс.
Библиотека кодирования : LAME3.99r
Настройки программы : -m j -V 4 -q 2 -lowpass 17 -b 128

pb.wtf



Скачать Цепь убийств через торрент http://pic1.kartinco.top/images/12/4kzpz.jpg Скачать фильм Цепь убийств через торрент бесплантно в хорошем качестве Описание: Однажды судьба сводит вместе в одном месте трёх незнакомых между собой людей. Они не понимают, почему оказались не в том месте и ... 10 10 3
Торрент: Зарегистрирован [2020-03-24 18:43] · скачан: 58 раз
Статус: √ проверено
Размер: 707 MB
Как cкачать? Как скачать Цепь убийств через торрент | qTorrent

% Раздел Тема Автор DL S | L
Фильмы 2019-2020 [DVDrip, WEB-DLRip, HDrip] (DUB, MVO) [ 1.46 GB ] Цепь убийств / Kill Chain [2019 нуар BDRip] MVO bober100 Скачать
12 | 0
Фильмы (Blu-ray, BD-Remux, HDDVD) [ 22.27 GB ] Цепь убийств / Kill Chain [2019 нуар BD Remux 1080p] MVO bober100 Скачать
2 | 0
Фильмы [HD 720p, 1080p] (Хороший звук DUB, MVO) [ 5.46 GB ] Цепь убийств / Kill Chain [2019 нуар BDRip 720p] MVO bober100 Скачать
9 | 0
Фильмы [HD 720p, 1080p] (Хороший звук DUB, MVO) [ 13.36 GB ] Цепь убийств / Kill Chain [2019 нуар BDRip 1080p] MVO bober100 Скачать
6 | 0

28-11-2019 20:33  

Отключить всю рекламу на сайте

    Дорогой пользователь! Огромная просьба, поблагодарите релизера, оцените раздачу и оставьте свои комментарий, если Вы скачали Цепь убийств через торрент бесплатно! Внесите свою лепту в развитие PiratBit!
    Комментировать посты могут только пользователи прошедшие не сложную регистрацию
    Показать сообщения:    

    Цепь убийств через торрент
    Скачать бесплатно Цепь убийств
    Цепь убийств скачать торрент
    Цепь убийств смотреть онлайн
    Cкачать фильм Цепь убийств бесплатно
    Цепь убийств скачать торрент в хорошем качестве
    Цепь убийств смотреть онлайн бесплатно в хорошем качестве


    Вы не можете начинать темы
    Вы не можете отвечать на сообщения
    Вы не можете редактировать свои сообщения
    Вы не можете удалять свои сообщения
    Вы не можете голосовать в опросах
    Вы не можете прикреплять файлы к сообщениям
    Вы можете скачивать файлы