Anonymous, добрый день, присоединяйтесь к нам в Telegram!, здесь всегда актуальный адрес сайта, оперативная поддержка и многое другое!

>

5.5

iTunes

7.4

iTunes

7.9

iTunes

1

7.7

1 сезон

6.8

iTunes

7.3

1 сезон

13

6.7

1 сезон

8.3

RePack

30

ULTIMATE

pack

9.9

Лицензия

ВАЖНО

ИГРА 18+

pack

7.3

RePack

MK11

7.7

RePack

jed

7.8

RePack

fifa19

8.5

RePack

RDR2

RePack

NEED FOR SPEED™ PAYBACK

4 сезон

9 сезон

Бесстыжие 9 сезон

Все сериалы

все сериалы на PB.wtf

RePack

FAR CRY 5

Anonymous, добрый день, мы катастрофически не успеваем собрать деньги на оплату серверов, помогите нам пожалуйста 5,10,15р., для нас важна любая помощь . В качестве благодарности мы отключим Вам всю рекламу на сайте (укажите свой ник в строку Ваше имя)!

×
  
Magnet ссылка

Колл-центр / Сезон: 1 / Серии: 1-8 из 8 (Наталья Меркулова, Алексей Чупов) [2020, Драма, мистика, триллер, HDTV 1080i] pb.wtf

Колл-центр через торрент pb.wtf

Раздают: 1 [ 76 KB/s ]
Размер: 16.44 GB | Добавлен: 1 год 6 мес. назад | Торрент скачан:239 раз
Смотреть онлайн Колл-центр | Скачать    Ребята, помогите собрать деньги на оплату серверов!!!

24-03-2020 21:15 Колл-центр Скачать торрент  

Колл-центр Год выпуска: 2020
Страна: Россия
Жанр: Драма, мистика, триллер
Продолжительность: ~ 00:45:00 серия
Перевод: Не требуется
Субтитры: отсутствуют

Режиссер: Наталья Меркулова, Алексей Чупов



В ролях: Павел Табаков, Владимир Яглыч, Юлия Хлынина, Анатолий Белый, Сабина Ахмедова, Мадлен Джабраилова, Никита Тарасов, Аскар Нигамедзянов, Зоя Кайдановская, Полина Пушкарук, Ольга Веникова, Леван Хурция, Стася Милославская, Тарас Епифанцев, Константин Белошапка, Наталья Кудряшова, Алиса Сельникова, Егор Шереметьев, Екатерина Волкова, Антон Ерёмин

Описание: 12 сотрудников офиса колл-центра интернет-магазина для взрослых оказываются заперты на 25-м этаже московского бизнес-центра. Внезапно с ними связываются злоумышленники, называющие себя «мамой» и «папой». Они сообщают, что помещение заминировано. Для того, чтобы бомба не взорвалась раньше срока, работники обязаны выполнять требования преступников. Удастся ли заложникам обезвредить бомбу и спастись, но при этом остаться людьми?

Качество: HDTV 1080i
Формат: TS

Видео: 1920х1080 (16:9), 25 fps, AVC MPEG-4 (x264), High@L4.0 ~ 5600 kbps avg, 0.109 bit/pixel
Аудио: 48 kHz, MPEG Layer 2, 2 ch, ~ 192 kbps avg
скриншот  скриншот  скриншот  скриншот  

Общее
Идентификатор : 1 (0x1)
Полное имя : C:\Koll-centr.S01.2020.HDTV.(1080i).ExKinoRay\Koll-centr.S01.E01.2020.HDTV.(1080i).ExKinoRay.ts
Формат : MPEG-TS
Размер файла : 1,86 Гбайт
Продолжительность : 43 м. 19 с.
Режим общего битрейта : Переменный
Общий поток : 6135 Кбит/сек

Видео
Идентификатор : 211 (0xD3)
Идентификатор меню : 2207 (0x89F)
Формат : AVC
Формат/Информация : Advanced Video Codec
Профиль формата : High@L4
Настройки формата : CABAC / 4 Ref Frames
Параметр CABAC формата : Да
Параметр RefFrames формата : 4 кадра
Параметр GOP формата : M=4, N=28
Идентификатор кодека : 27
Продолжительность : 43 м. 19 с.
Битрейт : 5638 Кбит/сек
Ширина : 1920 пикселей
Высота : 1080 пикселей
Соотношение сторон : 16:9
Частота кадров : 25,000 кадров/сек
Стандарт вещания : Component
Цветовое пространство : YUV
Субдискретизация насыщенности : 4:2:0
Битовая глубина : 8 бит
Тип развёртки : Чересстрочная
Метод сохранения типа развёртки : Раздельные поля
Порядок развёртки : Верхнее поле первое
Бит/(Пиксели*Кадры) : 0.109
Размер потока : 1,71 Гбайт (92%)
Цветовой диапазон : Limited
Основные цвета : BT.709
Характеристики трансфера : BT.709
Коэффициенты матрицы : BT.709

Аудио
Идентификатор : 221 (0xDD)
Идентификатор меню : 2207 (0x89F)
Формат : MPEG Audio
Версия формата : Version 1
Профиль формата : Layer 2
Идентификатор кодека : 3
Продолжительность : 43 м. 19 с.
Вид битрейта : Постоянный
Битрейт : 192 Кбит/сек
Каналы : 2 канала
Частота : 48,0 КГц
Частота кадров : 41,667 кадра/сек (1152 SPF)
Метод сжатия : С потерями
Размер потока : 59,5 Мбайт (3%)
Язык : Russian

Когда раздача ведётся путём добавления новых серий, при каждом добавлении создётся новый торрент. Чтобы начать докачку новой серии, пользователям необходимо сделать следующее:
(1) остановить скачивание,
(2) удалить старый торрент у себя из клиента (старые серии удалять не надо),
(3) скачать новый торрент и запустить его у себя в клиенте вместо старого, при этом указать клиенту путь в старую папку, куда и должно происходить скачивание новых серий.
Ваш клиент при этом должен произвести хеширование (проверку) старой папки (если не производит сам - помогите ему сделать это), и будет докачивать только те серии, которых у вас ещё нет. Старые серии при этом не удаляются, а продолжают раздаваться!
Eсли вы уже удалили старые серии, то предотвратить повторную закачку старых серий можно, отжав галочку в соответсвующих местах при запуске нового торрента. По возможности, желательно не удалять старые серии как можно дольше, чтобы релизёр не столько продолжал раздавать старые серии, а смог сконцентрироваться на новых.
pb.wtf



Скачать Колл-центр через торрент https://img10.lostpic.net/2020/03/23/d01cdb60f30121a458f3e77f3ebd8491.jpg Скачать, смотреть онлайн Колл-центр бесплантно в хорошем качестве Описание: 12 сотрудников офиса колл-центра интернет-магазина для взрослых оказываются заперты на 25-м этаже московского бизнес-центра. ... 10 10 15
Торрент: Зарегистрирован [2020-04-02 20:30] · скачан: 239 раз
Статус: √ проверено
Размер: 16.44 GB
Как cкачать? Как скачать Колл-центр через торрент | UTorrent

% Раздел Тема Автор DL S | L
TNT serials [ 4.69 GB ] Колл-центр / Сезон: 1 / Серии: 1-8 из 8 [2020 WEBRip] bober100 Скачать
2 | 0
TNT serials [ 5.21 GB ] Колл-центр / Сезон: 1 / Серии: 1-8 из 8 [2020 SATRip] bober100 Скачать
1 | 0
TNT serials [ 12.79 GB ] Колл-центр / Сезон: 1 / Серии: 1-8 из 8 [2020 WEBRip 1080p] bober100 Скачать
1 | 0
TNT serials [ 6.26 GB ] Колл-центр / Сезон: 1 / Серии: 1-8 из 8 [2020 WEBRip-AVC] bober100 Скачать
6 | 0
TNT serials [ 8.68 GB ] Колл-центр / Сезон: 1 / Серии: 1-8 из 8 [2020 WEBRip 720p] bober100 Скачать
1 | 0

28-11-2019 20:33  

Отключить всю рекламу на сайте

    Дорогой пользователь! Огромная просьба, поблагодарите релизера, оцените раздачу и оставьте свои комментарий, если Вы скачали Колл-центр через торрент бесплатно!
    Комментировать посты могут только пользователи прошедшие не сложную регистрацию
    Показать сообщения:    

    Колл-центр через торрент
    Скачать бесплатно Колл-центр
    Колл-центр скачать торрент
    Колл-центр смотреть онлайн
    Cкачать фильм Колл-центр бесплатно
    Колл-центр скачать торрент в хорошем качестве
    Колл-центр смотреть онлайн бесплатно в хорошем качестве


    Вы не можете начинать темы
    Вы не можете отвечать на сообщения
    Вы не можете редактировать свои сообщения
    Вы не можете удалять свои сообщения
    Вы не можете голосовать в опросах
    Вы не можете прикреплять файлы к сообщениям
    Вы можете скачивать файлы