Ссылка на приватное зеркало нашего сайта всего за 1$. Внимание количество ограничено!!!

2 сезон

iTunes

1 сезон

1

iTunes

iTunes

iTunes

1 сезон

RePack

30

ИГРА 18+

pack

ВАЖНО

!!Акция!!

Alien_RageХит недели

RePack

MK11
pack

Забери бонус

RePack

jed

!!Акция!!

Alien_Rage

RePack

fifa19

RePack

Assassins Creed: Odyssey

RePack

NEED FOR SPEED™ PAYBACK

4 сезон

9 сезон

Бесстыжие 9 сезон

Все сериалы

все сериалы на PB.wtf

RePack

FAR CRY 5
  

Заступники / Сезон: 1 / Серии: 1-8 из 8 (Владимир Котт) [2020, Детектив, драма, WEB-DL 720p] pb.wtf

Заступники через торрент pb.wtf

Размер: 8.25 GB | Добавлен: 6 мес. назад | Торрент скачан:38 раз
Скачать  

25-03-2020 01:03 Заступники Скачать торрент  

Заступники
Год выпуска: 2020
Страна: Россия
Жанр: Детектив, драма
Продолжительность: ~ 00:50:00 серия
Субтитры: отсутствуют

Режиссер: Владимир Котт



В ролях: Мари Ворожи, Кирилл Гребенщиков, Никита Тарасов, Виктория Верберг, Анна Арланова, Евгений Морозов, Мария Фомина, Игорь Гордин, Александр Сирин, Юрий Нифонтов, Максим Виторган, Алексей Войтюк, Екатерина Агеева, Иван Василевский (II), Екатерина Волкова, Татьяна Новик (II), Данил Можаев, Анжела Кораблёва, Виктор Васильев (II), Даниил Вершинин, Александр Никольский (II), Дмитрий Муляр, Георгий Фетисов, Иосиф Лагидзе, Ана Джавахишвили, Валентин Самохин, Костя Капский, Аполлон Кублашвили, Инна Сухорецкая, Вадим Норштейн, Ксения Савицкая

Описание: Сериал снят по мотивам книги адвоката Дины Каминской «Записки адвоката». Сериал основан на реальных судебных процессах знаменитых советских адвокатов. 1966 год. Конец оттепели. Нина Метлицкая — молодой, амбициозный адвокат — берется за самые сложные дела, включая обвинения в диссидентстве. Девушке выпадает шанс перевестись из небольшой юридической консультации в дальнем Подмосковье в Филиал №1 — самое сильное адвокатское бюро Советского Союза. Теперь Нине предстоит доказать, что она оказалась на новом месте заслуженно. Среди подзащитных Метлицкой - вор в законе, цеховик-миллионер, меломан, обвиняемый в шпионаже, звезда кино, осужденная за убийство сожителя, диссиденты- вся история брежневского Союза. А также - один из двух подростков, несправедливо обвиненных в страшном преступлении.

Качество: WEB-DL 720p
Формат: MKV

Видео: 1280х720 (16:9), 25 fps, AVC MPEG-4 (x264), High@L4.1 ~ 2500 kbps avg, 0.109 bit/pixel
Аудио: 48.0 kHz, AC3 Dolby Digital, 2/0 (L,R) ch, ~ 256 kbps
скриншот  скриншот  скриншот  скриншот  

Общее
Уникальный идентификатор : 215213438116427747249249261850762343168 (0xA1E899B9BB65D1899C61A3F3BEE2F300)
Полное имя : C:\Zastupniki.2019.WEB-DL.(720p).ExKinoRay\Zastupniki.E01.2019.WEB-DL.(720p).ExKinoRay.mkv
Формат : Matroska
Версия формата : Version 4
Размер файла : 1021 Мбайт
Продолжительность : 50 м. 37 с.
Общий поток : 2818 Кбит/сек
Дата кодирования : UTC 2020-03-24 08:32:47
Программа кодирования : mkvmerge v6.9.1 ('Blue Panther') 64bit built on Apr 18 2014 18:23:38
Библиотека кодирования : libebml v1.3.0 + libmatroska v1.4.1

Видео
Идентификатор : 1
Формат : AVC
Формат/Информация : Advanced Video Codec
Профиль формата : High@L4
Настройки формата : CABAC / 4 Ref Frames
Параметр CABAC формата : Да
Параметр RefFrames формата : 4 кадра
Идентификатор кодека : V_MPEG4/ISO/AVC
Продолжительность : 50 м. 37 с.
Битрейт : 2506 Кбит/сек
Ширина : 1280 пикселей
Высота : 720 пикселей
Соотношение сторон : 16:9
Режим частоты кадров : Постоянный
Частота кадров : 25,000 кадров/сек
Цветовое пространство : YUV
Субдискретизация насыщенности : 4:2:0
Битовая глубина : 8 бит
Тип развёртки : Прогрессивная
Бит/(Пиксели*Кадры) : 0.109
Размер потока : 907 Мбайт (89%)
Default : Да
Forced : Нет

Аудио
Идентификатор : 2
Формат : AC-3
Формат/Информация : Audio Coding 3
Коммерческое название : Dolby Digital
Идентификатор кодека : A_AC3
Продолжительность : 50 м. 37 с.
Вид битрейта : Постоянный
Битрейт : 256 Кбит/сек
Каналы : 2 канала
ChannelLayout : L R
Частота : 48,0 КГц
Частота кадров : 31,250 кадров/сек (1536 SPF)
Битовая глубина : 16 бит
Метод сжатия : С потерями
Размер потока : 92,7 Мбайт (9%)
Язык : Russian
ServiceKind/String : Complete Main
Default : Да
Forced : Нет

Раздача ведётся путём добавления новых серий, при каждом добавлении создаётся новый торрент. Чтобы начать докачку новой серии, пользователям необходимо сделать следующее:

- Остановить скачивание.
- Удалить старый торрент у себя из клиента (старые серии удалять не надо).
- Скачать новый торрент и запустить его у себя в клиенте вместо старого, при этом указать клиенту путь в старую папку куда и должно происходить скачивание новых серий.

Ваш клиент при этом должен произвести хеширование (проверку) старой папки (если не производит сам - помогите ему сделать это), и будет докачивать только те серии которых у вас ещё нет. Старые серии при этом не удаляются, а продолжают раздаваться!
Если вы уже удалили старые серии, то предотвратить повторную закачку старых серий можно, отжав галочку в соответствующих местах при запуске нового торрента. По возможности, желательно не удалять старые серии как можно дольше, чтобы релизер не столько продолжал раздавать старые серии, а смог сконцентрироваться на новых.
pb.wtf



Скачать Заступники через торрент http://b.radikal.ru/b27/2003/66/3435a4b6e19d.jpg Скачать фильм Заступники через торрент бесплантно в хорошем качестве Описание: Сериал снят по мотивам книги адвоката Дины Каминской «Записки адвоката». Сериал основан на реальных судебных процессах знаменитых ... 9.7 10 6
Торрент: Зарегистрирован [2020-04-03 01:31] · скачан: 38 раз
Статус: √ проверено
Размер: 8.25 GB
Как cкачать? Как скачать Заступники через торрент | qTorrent

% Раздел Тема Автор DL S | L
Наши сериалы [ 10.63 GB ] Заступники / Сезон: 1 / Серии: 1-8 из 8 [2020 HDTVRip 720p] bober100 Скачать
1 | 0
Наши сериалы [ 5.26 GB ] Заступники / Сезон: 1 / Серии: 1-8 из 8 [2020 WEB-DLRip] bober100 Скачать
1 | 1
Наши сериалы [ 15.5 GB ] Заступники / Сезон: 1 / Серии: 1-8 из 8 [2020 WEB-DL 1080p] bober100 Скачать
1 | 0
Наши сериалы [ 6.31 GB ] Заступники / Сезон: 1 / Серии: 1-8 из 8 [2020 HDTVRip-AVC] bober100 Скачать
1 | 0
Наши сериалы [ 16.07 GB ] Заступники / Сезон: 1 / Серии: 1-8 из 8 [2020 HDTV 1080i] bober100 Скачать
1 | 0
Наши сериалы [ 5.19 GB ] Заступники / Сезон: 1 / Серии: 1-8 из 8 [2020 HDTVRip] bober100 Скачать
2 | 0
Наши сериалы [ 4.69 GB ] Заступники / Сезон: 1 / Серии: 1-8 из 8 [2020 SATRip] bober100 Скачать
1 | 0


Последний раз редактировалось: bober100 (2020-04-03 01:31), всего редактировалось 1 раз

28-11-2019 20:33  

Отключить всю рекламу на сайте

02-04-2020 12:55 Заступники Скачать торрент  

приятный фильмpb.wtf



    Дорогой пользователь! Огромная просьба, поблагодарите релизера, оцените раздачу и оставьте свои комментарий, если Вы скачали Заступники через торрент бесплатно! Внесите свою лепту в развитие PiratBit!
    Комментировать посты могут только пользователи прошедшие не сложную регистрацию
    Показать сообщения:    

    Заступники через торрент
    Скачать бесплатно Заступники
    Заступники скачать торрент
    Заступники смотреть онлайн
    Cкачать фильм Заступники бесплатно
    Заступники скачать торрент в хорошем качестве
    Заступники смотреть онлайн бесплатно в хорошем качестве


    Вы не можете начинать темы
    Вы не можете отвечать на сообщения
    Вы не можете редактировать свои сообщения
    Вы не можете удалять свои сообщения
    Вы не можете голосовать в опросах
    Вы не можете прикреплять файлы к сообщениям
    Вы можете скачивать файлы