Ссылка на приватное зеркало всего за 1$. Внимание количество ограничено!!!

iTunes

iTunes

iTunes

1

iTunes

iTunes

iTunes

iTunes

iTunes

30
pack

Новость дня

ВАЖНО

!!Акция!!

Alien_RageХит недели

RePack

Resident Evil 21

ИГРА 18+

pack

RePack

jed

!!Акция!!

Alien_Rage

RePack

fifa19

RePack

Assassins Creed: Odyssey

RePack

NEED FOR SPEED™ PAYBACK

4 сезон

9 сезон

Бесстыжие 9 сезон

Все сериалы

все сериалы на PB.wtf

RePack

FAR CRY 5
  

Глубокое синее море / Deep Blue Sea (Ренни Харлин) [1999 г., фантастика, боевик, триллер, BDRip 720p / 60 FPS, Дубляж] от R.G. HD-Films pb.wtf

Глубокое синее море через торрент pb.wtf

Раздают: 1 [ 0 KB/s ]
Размер: 3.38 GB | Добавлен: 14 д. назад | Торрент скачан:31 раз
Скачать  

25-03-2020 10:21 Глубокое синее море Скачать торрент  

Глубокое синее море / Deep Blue Sea
Год выпуска: 1999
Страна: США
Жанр: фантастика, боевик, триллер
Продолжительность: 01:45:00
Перевод: Дубляж

Режиссер: Ренни Харлин

Бюджет: $60 000 000
Премьера в мире: 26 июля 1999

rating

В ролях: Томас Джейн, Саффрон Берроуз, Сэмюэл Л. Джексон, Жаклин МакКензи, Майкл Рапапорт, Стеллан Скарсгард, ЭлЭл Кул Джей, Аида Туртурро, Кристос, Дэниэл Рей

Описание: Ученые подводной лаборатории «Акватика», разрабатывая препарат от болезни Альцгеймера, находят способ генетического увеличения мозга подопытных акул.

Агрессивные и злобные хищники превращаются в думающих монстров-убийц, способных перехитрить своих создателей. Герои фильма пытаются справиться с разъяренными хищниками. Но спастись от острых челюстей огромных и умных акул практически невозможно…


Качество: BDRip 720p / 60 FPS
Формат: MKV
Видео кодек: H.264
Аудио кодек: AC3
Видео: x264, 1280 x 536 ( 2,40:1 ), 4709 kbps, 60,000 fps, ( 0.114 bpp)
Аудио#1: Русский, AC-3, 48.0 KHz, 6 ch, 384 Kbps
Релиз от:

скриншот   скриншот   скриншот   скриншот   скриншот   скриншот  Автор рипа: slaventi-69
Общее
Уникальный идентификатор : 338289370369381847024937878798448562044 (0xFE8029AEFAD35382AFCA91BD19A58F7C)
Полное имя : F:\Deep.Blue.Sea.(1999).BDRip.720p.(60 Fps).mkv
Формат : Matroska
Версия формата : Version 4
Размер файла : 3,38 Гбайт
Продолжительность : 1 ч. 35 м.
Общий поток : 5097 Кбит/сек
Название фильма : Глубокое синее море / Deep Blue Sea (1999) BDRip 720p (60 Fps)
Дата кодирования : UTC 2020-03-24 15:15:17
Программа кодирования : mkvmerge v42.0.0 ('Overtime') 64-bit
Библиотека кодирования : libebml v1.3.10 + libmatroska v1.5.2

Видео
Идентификатор : 1
Формат : AVC
Формат/Информация : Advanced Video Codec
Профиль формата : High@L4.1
Настройки формата : CABAC / 8 Ref Frames
Параметр CABAC формата : Да
Параметр RefFrames формата : 8 кадров
Идентификатор кодека : V_MPEG4/ISO/AVC
Продолжительность : 1 ч. 35 м.
Битрейт : 4709 Кбит/сек
Ширина : 1280 пикселей
Высота : 536 пикселей
Соотношение сторон : 2,40:1
Режим частоты кадров : Постоянный
Частота кадров : 60,000 кадров/сек
Цветовое пространство : YUV
Субдискретизация насыщенности : 4:2:0
Битовая глубина : 8 бит
Тип развёртки : Прогрессивная
Бит/(Пиксели*Кадры) : 0.114
Размер потока : 3,13 Гбайт (92%)
Заголовок : slaventi-69 ( R.G. HD-Films | 60 fps )
Библиотека кодирования : x264 core 130 r2273 b3065e6
Настройки программы : cabac=1 / ref=8 / deblock=1:-1:-1 / analyse=0x3:0x133 / me=umh / subme=9 / psy=1 / psy_rd=1.00:0.00 / mixed_ref=1 / me_range=26 / chroma_me=1 / trellis=2 / 8x8dct=1 / cqm=0 / deadzone=21,11 / fast_pskip=0 / chroma_qp_offset=-2 / threads=6 / lookahead_threads=4 / sliced_threads=0 / nr=0 / decimate=1 / interlaced=0 / bluray_compat=0 / constrained_intra=0 / bframes=5 / b_pyramid=2 / b_adapt=2 / b_bias=0 / direct=3 / weightb=1 / open_gop=0 / weightp=2 / keyint=250 / keyint_min=25 / scenecut=40 / intra_refresh=0 / rc_lookahead=50 / rc=crf / mbtree=1 / crf=17.0 / qcomp=0.60 / qpmin=0 / qpmax=69 / qpstep=4 / ip_ratio=1.40 / aq=1:1.00
Язык : English
Default : Да
Forced : Нет

Аудио
Идентификатор : 2
Формат : AC-3
Формат/Информация : Audio Coding 3
Коммерческое название : Dolby Digital
Идентификатор кодека : A_AC3
Продолжительность : 1 ч. 35 м.
Вид битрейта : Постоянный
Битрейт : 384 Кбит/сек
Каналы : 6 каналов
Channel layout : L R C LFE Ls Rs
Частота : 48,0 КГц
Частота кадров : 31,250 кадров/сек (1536 SPF)
Битовая глубина : 16 бит
Метод сжатия : С потерями
Размер потока : 261 Мбайт (8%)
Заголовок : DUB
Язык : Russian
ServiceKind/String : Complete Main
Default : Да
Forced : Нет

Меню
00:00:00.000 : en:00:00:00.000
00:03:54.525 : en:00:03:54.525
00:07:07.844 : en:00:07:07.844
00:10:46.645 : en:00:10:46.645
00:13:23.010 : en:00:13:23.010
00:15:16.707 : en:00:15:16.707
00:18:30.359 : en:00:18:30.359
00:23:19.189 : en:00:23:19.189
00:29:09.914 : en:00:29:09.914
00:33:35.805 : en:00:33:35.805
00:35:51.315 : en:00:35:51.315
00:38:29.348 : en:00:38:29.348
00:40:15.329 : en:00:40:15.329
00:43:01.745 : en:00:43:01.745
00:46:54.393 : en:00:46:54.393
00:50:59.389 : en:00:50:59.389
00:54:42.570 : en:00:54:42.570
00:57:23.731 : en:00:57:23.731
01:01:41.363 : en:01:01:41.363
01:04:23.943 : en:01:04:23.943
01:08:35.361 : en:01:08:35.361
01:12:09.867 : en:01:12:09.867
01:15:13.091 : en:01:15:13.091
01:16:08.814 : en:01:16:08.814
01:18:00.509 : en:01:18:00.509
01:19:55.749 : en:01:19:55.749
01:23:44.352 : en:01:23:44.352
01:26:14.502 : en:01:26:14.502
01:28:44.819 : en:01:28:44.819
01:31:19.055 : en:01:31:19.055
01:33:42.158 : en:01:33:42.158
01:35:31.058 : en:01:35:31.058
01:37:36.892 : en:01:37:36.892

Просьба к переливающим на другие сайты, в оформлении указывайте пожалуйста авторство группы R.G. HD-Films pb.wtf



Скачать Глубокое синее море через торрент http://i5.imageban.ru/out/2017/01/18/60703c743ef9a5a91717d2d3502c0d9c.png Скачать фильм Глубокое синее море через торрент бесплантно в хорошем качестве Описание: Ученые подводной лаборатории «Акватика», разрабатывая препарат от болезни Альцгеймера, находят способ генетического увеличения ... 10 10 3
Торрент: Зарегистрирован [2020-03-25 10:21] · скачан: 31 раз
Статус: √ проверено
Размер: 3.38 GB
Как cкачать? Как скачать Глубокое синее море через торрент | qTorrent

28-11-2019 20:33  

Отключить всю рекламу на сайте

25-03-2020 15:16 Глубокое синее море Скачать торрент  

Спасибо огромное за фильм!!! В эпоху карантина хоть какая-то отдушина. Луч света в тёмном царстве. Душевно благодарю за еще один хороший фильм!!!pb.wtf



25-03-2020 15:52 Глубокое синее море Скачать торрент  

Пожалуйста, ждем " Бездна ".pb.wtf



25-03-2020 17:05 Глубокое синее море Скачать торрент  

Спасибо. Будем ждать.pb.wtf



    Дорогой пользователь! Огромная просьба, поблагодарите релизера, оцените раздачу и оставьте свои комментарий, если Вы скачали Глубокое синее море через торрент бесплатно! Внесите свою лепту в развитие PiratBit!
    Комментировать посты могут только пользователи прошедшие не сложную регистрацию
    Показать сообщения:    

    Глубокое синее море через торрент
    Скачать бесплатно Глубокое синее море
    Глубокое синее море скачать торрент
    Глубокое синее море смотреть онлайн
    Cкачать фильм Глубокое синее море бесплатно
    Глубокое синее море скачать торрент в хорошем качестве
    Глубокое синее море смотреть онлайн бесплатно в хорошем качестве


    Вы не можете начинать темы
    Вы не можете отвечать на сообщения
    Вы не можете редактировать свои сообщения
    Вы не можете удалять свои сообщения
    Вы не можете голосовать в опросах
    Вы не можете прикреплять файлы к сообщениям
    Вы можете скачивать файлы