Всегда рабочее зеркало без VPN и Proxy просто перед .vidak.icu напиши любое слово или цифру, Пример http://ez46.vidak.icu

MVO

MVO

1 сезон

1

1 сезон

iTunes

1 сезон

13

1 сезон

Deluxe

pack

Рекомендуем

Repack

30

ВАЖНО

RePack

MK11

RePack

jed

RePack

fifa19

RePack

RDR2

RePack

NEED FOR SPEED™ PAYBACK

Кинопоиск HD

6 сезон

 Острые козырьки 6 сезон

Все сериалы

все сериалы на PB.wtf

RePack

FAR CRY 5
  
Magnet ссылка

Звёздные войны: Скайуокер. Восход / Star Wars: Episode IX - The Rise of Skywalker (Джей Джей Абрамс) [2019, Фантастика, боевик, приключения, UHD BDRip 2160p] DUB [iTunes] pb.wtf

Звёздные войны: Скайуокер. Восход через торрент pb.wtf

Размер: 28.38 GB | Добавлен: 2 года 4 мес. назад | Торрент скачан:231 раз
Смотреть онлайн Звёздные войны: Скайуокер. Восход | Скачать    Ребята, помогите собрать деньги на оплату серверов!!!

25-03-2020 20:25 Звёздные войны: Скайуокер. Восход Скачать торрент  

Звёздные войны: Скайуокер. Восход | Star Wars: Episode IX - The Rise of Skywalker
Год выпуска: 2019
Страна: США
Студия: Lucasfilm, Bad Robot, Digital Makeup Group
Жанр: Фантастика, фэнтези, боевик, приключения
Продолжительность: ~ 02:21:53
Перевод: Дублированный | iTunes
Субтитры: Русские (Forced, full, SDH), английские (FORCED-PGS, PGS, SRT, SDH)

Режиссер: Джей Джей Абрамс

rating

В ролях: Дэйзи Ридли, Адам Драйвер, Кэрри Фишер, Марк Хэмилл, Джон Бойега, Оскар Айзек, Энтони Дэниелс, Наоми Аки, Донал Глисон, Ричард Э. Грант

Описание: Фильм завершает невероятную историю семьи Скайуокеров, длящуюся уже более сорока лет, и обещает дать ответы на все загадки из предыдущих серий. Зрителя ожидают старые и новые герои, уникальные миры, увлекательные путешествия на край Галактики и грандиозный финал фантастической саги.

Качество: UHD BDRip 2160p
Формат: MKV

Видео: HEVC HDR, 27.6 Мбит/с, 3840x1608, 23.976 кадр/с, 10 Бит
Аудио #01: 48 kHz, AC3, 5.1, 384 Kbps | iTunes | RUS |
Аудио #02: 48 kHz, AC3, 5.1, 640 Kbps | Оригинал | ENG |
скриншот  скриншот  скриншот  скриншот  скриншот  

Общее
Уникальный идентификатор : 246402564984840950497600772589793591039 (0xB95F6867674DF21CBFE93B89EC543EFF)
Полное имя : G:\Star.Wars.Episode.IX.The.Rise.of.Skywalker.2019.2160p.UHD.BDRip.HDR.x265.10-bit.Master5.mkv
Формат : Matroska
Версия формата : Version 4
Размер файла : 28,4 Гбайт
Продолжительность : 2 ч. 21 м.
Общий поток : 28,6 Мбит/сек
Название фильма : Star.Wars.Episode.IX.The.Rise.of.Skywalker.2019.2160p.UHD.BDRip.HDR.x265.10-bit.Master5
Дата кодирования : UTC 2020-03-25 18:44:42
Программа кодирования : mkvmerge v7.9.0 ('Birds') 64bit
Библиотека кодирования : libebml v1.3.1 + libmatroska v1.4.2
Обложка : Yes
Attachments : small_cover.jpg / small_cover_land.jpg / cover.jpg / cover_land.jpg / cover 2.jpg

Видео
Идентификатор : 1
Формат : HEVC
Формат/Информация : High Efficiency Video Coding
Коммерческое название : HDR10
Профиль формата : Main [email protected]@High
Идентификатор кодека : V_MPEGH/ISO/HEVC
Продолжительность : 2 ч. 21 м.
Битрейт : 27,6 Мбит/сек
Ширина : 3840 пикселей
Высота : 1608 пикселей
Соотношение сторон : 2,40:1
Режим частоты кадров : Постоянный
Частота кадров : 23,976 (24000/1001) кадра/сек
Цветовое пространство : YUV
Субдискретизация насыщенности : 4:2:0 (Type 2)
Битовая глубина : 10 бит
Бит/(Пиксели*Кадры) : 0.186
Размер потока : 27,3 Гбайт (96%)
Заголовок : Star.Wars.Episode.IX.The.Rise.of.Skywalker.2019.2160p.UHD.BDRip.HDR.x265.10-bit.Master5
Библиотека кодирования : x265 3.0_Au+10-74a8672ea4f7:[Windows][GCC 8.2.1][64 bit] 10bit
Настройки программы : cpuid=1111039 / frame-threads=6 / numa-pools=24,24,24,24 / wpp / no-pmode / no-pme / no-psnr / no-ssim / log-level=2 / input-csp=1 / input-res=3840x1608 / interlace=0 / total-frames=0 / level-idc=51 / high-tier=1 / uhd-bd=0 / ref=3 / no-allow-non-conformance / repeat-headers / annexb / aud / hrd / info / hash=0 / no-temporal-layers / no-open-gop / min-keyint=1 / keyint=24 / gop-lookahead=0 / bframes=4 / b-adapt=2 / b-pyramid / bframe-bias=0 / rc-lookahead=25 / lookahead-slices=4 / scenecut=40 / radl=0 / no-splice / no-intra-refresh / ctu=64 / min-cu-size=8 / no-rect / no-amp / max-tu-size=32 / tu-inter-depth=1 / tu-intra-depth=1 / limit-tu=0 / rdoq-level=0 / dynamic-rd=0.00 / no-ssim-rd / signhide / no-tskip / nr-intra=0 / nr-inter=0 / no-constrained-intra / strong-intra-smoothing / max-merge=2 / limit-refs=3 / no-limit-modes / me=1 / subme=2 / merange=57 / temporal-mvp / weightp / no-weightb / no-analyze-src-pics / deblock=0:0 / no-sao / no-sao-non-deblock / rd=3 / no-early-skip / rskip / no-fast-intra / no-tskip-fast / no-cu-lossless / no-b-intra / no-splitrd-skip / rdpenalty=0 / psy-rd=2.00 / psy-rdoq=0.00 / no-rd-refine / no-lossless / cbqpoffs=0 / crqpoffs=0 / rc=crf / crf=16.0 / qcomp=0.60 / qpstep=4 / stats-write=0 / stats-read=0 / vbv-maxrate=160000 / vbv-bufsize=160000 / vbv-init=0.9 / crf-max=0.0 / crf-min=0.0 / ipratio=1.40 / pbratio=1.30 / aq-mode=1 / aq-strength=1.00 / cutree / zone-count=0 / no-strict-cbr / qg-size=32 / no-rc-grain / qpmax=69 / qpmin=0 / no-const-vbv / sar=1 / overscan=0 / videoformat=5 / range=0 / colorprim=9 / transfer=16 / colormatrix=9 / chromaloc=1 / chromaloc-top=2 / chromaloc-bottom=2 / display-window=0 / master-display=G(13250,34500)B(7500,3000)R(34000,16000)WP(15635,16450)L(10000000,01) / max-cll=724,647 / min-luma=0 / max-luma=1023 / log2-max-poc-lsb=8 / vui-timing-info / vui-hrd-info / slices=1 / opt-qp-pps / opt-ref-list-length-pps / no-multi-pass-opt-rps / scenecut-bias=0.05 / no-opt-cu-delta-qp / no-aq-motion / hdr / hdr-opt / no-dhdr10-opt / no-idr-recovery-sei / analysis-reuse-level=5 / scale-factor=0 / refine-intra=0 / refine-inter=0 / refine-mv=0 / refine-ctu-distortion=0 / no-limit-sao / ctu-info=0 / no-lowpass-dct / refine-analysis-type=-1398950547 / copy-pic=1 / max-ausize-factor=1.0 / no-dynamic-refine / no-single-sei / no-hevc-aq / no-svt / qp-adaptation-range=1.00
Default : Да
Forced : Нет
Цветовой диапазон : Limited
Основные цвета : BT.2020
Характеристики трансфера : PQ
Коэффициенты матрицы : BT.2020 non-constant
MasteringDisplay_ColorPrimaries : Display P3
MasteringDisplay_Luminance : min: 0.0001 cd/m2, max: 1000 cd/m2
MaxCLL : 724 cd/m2
MaxFALL : 647 cd/m2

Аудио #1
Идентификатор : 2
Формат : AC-3
Формат/Информация : Audio Coding 3
Коммерческое название : Dolby Digital
Идентификатор кодека : A_AC3
Продолжительность : 2 ч. 21 м.
Вид битрейта : Постоянный
Битрейт : 384 Кбит/сек
Каналы : 6 каналов
Channel layout : L R C LFE Ls Rs
Частота : 48,0 КГц
Частота кадров : 31,250 кадров/сек (1536 SPF)
Битовая глубина : 16 бит
Метод сжатия : С потерями
Размер потока : 390 Мбайт (1%)
Заголовок : DUB
Язык : Russian
ServiceKind/String : Complete Main
Default : Да
Forced : Да

Аудио #2
Идентификатор : 3
Формат : AC-3
Формат/Информация : Audio Coding 3
Коммерческое название : Dolby Digital
Идентификатор кодека : A_AC3
Продолжительность : 2 ч. 21 м.
Вид битрейта : Постоянный
Битрейт : 640 Кбит/сек
Каналы : 6 каналов
Channel layout : L R C LFE Ls Rs
Частота : 48,0 КГц
Частота кадров : 31,250 кадров/сек (1536 SPF)
Битовая глубина : 16 бит
Метод сжатия : С потерями
Размер потока : 650 Мбайт (2%)
Язык : English
ServiceKind/String : Complete Main
Default : Нет
Forced : Нет

Текст #1
Идентификатор : 4
Формат : UTF-8
Идентификатор кодека : S_TEXT/UTF8
Идентификатор кодека/Информация : UTF-8 Plain Text
Продолжительность : 1 ч. 37 м.
Битрейт : 1 бит/сек
ElementCount : 10
Размер потока : 938 байт (0%)
Заголовок : Forced
Язык : Russian
Default : Да
Forced : Да

Текст #2
Идентификатор : 5
Формат : UTF-8
Идентификатор кодека : S_TEXT/UTF8
Идентификатор кодека/Информация : UTF-8 Plain Text
Продолжительность : 2 ч. 17 м.
Битрейт : 57 бит/сек
ElementCount : 1435
Размер потока : 58,1 Кбайт (0%)
Заголовок : Full
Язык : Russian
Default : Нет
Forced : Нет

Текст #3
Идентификатор : 6
Формат : UTF-8
Идентификатор кодека : S_TEXT/UTF8
Идентификатор кодека/Информация : UTF-8 Plain Text
Продолжительность : 2 ч. 11 м.
Битрейт : 73 бит/сек
ElementCount : 1764
Размер потока : 71,1 Кбайт (0%)
Заголовок : SDH
Язык : Russian
Default : Нет
Forced : Нет

Текст #4
Идентификатор : 7
Формат : UTF-8
Идентификатор кодека : S_TEXT/UTF8
Идентификатор кодека/Информация : UTF-8 Plain Text
Продолжительность : 2 ч. 8 м.
Битрейт : 42 бит/сек
ElementCount : 1531
Размер потока : 39,8 Кбайт (0%)
Заголовок : English-SRT
Язык : English
Default : Нет
Forced : Нет

Текст #5
Идентификатор : 8
Формат : PGS
Режим смешивания : zlib
Идентификатор кодека : S_HDMV/PGS
Идентификатор кодека/Информация : Picture based subtitle format used on BDs/HD-DVDs
Продолжительность : 1 с. 627 мс.
Битрейт : 30,2 Кбит/сек
ElementCount : 2
Размер потока : 6,00 Кбайт (0%)
Заголовок : English-FORCED-PGS
Язык : English
Default : Нет
Forced : Нет

Текст #6
Идентификатор : 9
Формат : PGS
Режим смешивания : zlib
Идентификатор кодека : S_HDMV/PGS
Идентификатор кодека/Информация : Picture based subtitle format used on BDs/HD-DVDs
Продолжительность : 2 ч. 8 м.
Битрейт : 9885 бит/сек
ElementCount : 2894
Размер потока : 9,07 Мбайт (0%)
Заголовок : English-PGS
Язык : English
Default : Нет
Forced : Нет

Текст #7
Идентификатор : 10
Формат : PGS
Режим смешивания : zlib
Идентификатор кодека : S_HDMV/PGS
Идентификатор кодека/Информация : Picture based subtitle format used on BDs/HD-DVDs
Продолжительность : 2 ч. 11 м.
Битрейт : 13,4 Кбит/сек
ElementCount : 3786
Размер потока : 12,6 Мбайт (0%)
Заголовок : English-SDH-PGS
Язык : English
Default : Нет
Forced : Нет

Меню
00:00:00.000 : en:Opening Logo
00:00:09.176 : en:The Rise Of Skywalker
00:01:40.934 : en:Kylo Ren's Quest
00:03:47.811 : en:Exegol
00:06:42.902 : en:Millenium Falcon Mission
00:08:26.673 : en:Pursuit Of The Falcon
00:10:04.896 : en:Rey's Training Course
00:12:48.142 : en:General Leia
00:13:54.000 : en:The Falcon's Back
00:15:17.416 : en:Spy Message
00:17:13.199 : en:"We Go Together"
00:19:25.039 : en:Ren Reforged
00:21:28.579 : en:Pasaana Festival
00:25:27.693 : en:General Calrissian
00:27:14.883 : en:Speeder Chase
00:30:41.548 : en:Buried Secrets
00:35:49.064 : en:Power Unleashed
00:41:37.745 : en:Aftermath
00:43:15.259 : en:"In This Till The End"
00:45:28.351 : en:Meeting Zorii
00:48:24.568 : en:Babu Firk's Workshop
00:54:37.566 : en:Into The Destroyer
00:58:49.192 : en:Revelations
01:02:54.771 : en:Repercussions
01:06:23.104 : en:To Kef Bir
01:09:54.607 : en:Jannah
01:13:07.383 : en:The Emperor's Vault
01:18:23.616 : en:The Duel
01:23:41.225 : en:Remembrance
01:27:02.884 : en:The Final Order Begins
01:30:23.126 : en:The Destiny Of A Jedi
01:35:00.820 : en:Battle Plans
01:38:47.880 : en:Welcome To Exegol
01:40:35.863 : en:Drop Zone
01:43:03.135 : en:Throne Of The Sith
01:45:27.863 : en:Dark Turn
01:48:48.188 : en:Dyad In The Force
01:53:27.634 : en:The Galaxy Responds
01:55:30.757 : en:Emperor Reborn
01:59:02.969 : en:Last Chance
02:01:37.749 : en:Ben
02:05:20.430 : en:Victory
02:09:42.692 : en:Saga's End
02:12:25.896 : en:End Credits

pb.wtf



Скачать Звёздные войны: Скайуокер. Восход через торрент https://img10.lostpic.net/2020/03/20/2a1124c1cbd098f7e0571265f62e7d75.jpg Скачать, смотреть онлайн Звёздные войны: Скайуокер. Восход бесплантно в хорошем качестве Описание: Фильм завершает невероятную историю семьи Скайуокеров, длящуюся уже более сорока лет, и обещает дать ответы на все загадки из ... 10 10 5
Торрент: Зарегистрирован [2020-03-25 20:25] · скачан: 231 раз
Статус: √ проверено
Размер: 28.38 GB
Как cкачать? Как скачать Звёздные войны: Скайуокер. Восход через торрент | UTorrent

% Раздел Тема Автор DL S | L
Фильмы (WEB-DL 720p, 1080p) [ 5.08 GB ] Звёздные войны: Скайуокер. Восход / Star Wars: Episode IX - The Rise of Skywalker [2019 WEB-DL 1080p] [Локализованная версия] bober100 Скачать
1 | 0
Ultra HD (UHD: 2K, 4K, 8K) — видео сверхвысокой чёткости [ 61.77 GB ] Звёздные войны: Скайуокер. Восход / Star Wars: Episode IX - The Rise of Skywalker [2019 UHD Blu-ray 2160p] DUB sheker187 Скачать
2 | 0
Фильмы [HD 720p, 1080p] (Хороший звук DUB, MVO) [ 5.94 GB ] Звёздные войны: Скайуокер. Восход / Star Wars: Episode IX - The Rise of Skywalker [2019 BDRip 720p ] от ExKinoRay morfyi Скачать
1 | 0
Фильмы [HD 720p, 1080p] (Хороший звук DUB, MVO) [ 7.39 GB ] Звёздные войны: Скайуокер. Восход / Star Wars: Episode IX - The Rise of Skywalker [2019 BDRip 720p Custom AVO] от ExKinoRay morfyi Скачать
1 | 0
Фильмы (HD 720p, 1080p) (48-60 fps) [ 4.47 GB ] Звездные войны: Скайуокер. Восход / Star Wars: Episode IX - The Rise of Skywalker [2019 BDRip 720p / 60 FPS ] от R.G. HD-Films slaventi-69 Скачать
2 | 0
3D Фильмы [ 15.88 GB ] Звёздные войны: Скайуокер. Восход 3Д / Star Wars: Episode IX - The Rise of Skywalker 3D [2019 BDRip 1080p ] DUB bober100 Скачать
1 | 0
3D Фильмы [ 28.57 GB ] Звёздные войны: Скайуокер. Восход в 3Д / Star Wars: Episode IX - The Rise of Skywalker 3D [2019 BDRip 1080p] OverUnder / Вертикальная стереопара () serega768 Скачать
1 | 0

28-11-2019 20:33  

Отключить вcю реклaмy на сайте

    Дорогой пользователь! Огромная просьба, поблагодарите релизера, оцените раздачу и оставьте свои комментарий, если Вы скачали Звёздные войны: Скайуокер. Восход через торрент бесплатно!
    Комментировать посты могут только пользователи прошедшие не сложную регистрацию
    Показать сообщения:    

    Звёздные войны: Скайуокер. Восход через торрент
    Скачать бесплатно Звёздные войны: Скайуокер. Восход
    Звёздные войны: Скайуокер. Восход скачать торрент
    Звёздные войны: Скайуокер. Восход смотреть онлайн
    Cкачать фильм Звёздные войны: Скайуокер. Восход бесплатно
    Звёздные войны: Скайуокер. Восход скачать торрент в хорошем качестве
    Звёздные войны: Скайуокер. Восход смотреть онлайн бесплатно в хорошем качестве


    Вы не можете начинать темы
    Вы не можете отвечать на сообщения
    Вы не можете редактировать свои сообщения
    Вы не можете удалять свои сообщения
    Вы не можете голосовать в опросах
    Вы не можете прикреплять файлы к сообщениям
    Вы можете скачивать файлы