Ссылка на приватное зеркало всего за 1$. Внимание количество ограничено!!!

iTunes

iTunes

iTunes

1

iTunes

iTunes

iTunes

iTunes

iTunes

30
pack

Новость дня

ВАЖНО

!!Акция!!

Alien_RageХит недели

RePack

Resident Evil 21

ИГРА 18+

pack

RePack

jed

!!Акция!!

Alien_Rage

RePack

fifa19

RePack

Assassins Creed: Odyssey

RePack

NEED FOR SPEED™ PAYBACK

4 сезон

9 сезон

Бесстыжие 9 сезон

Все сериалы

все сериалы на PB.wtf

RePack

FAR CRY 5
  

257 причин, чтобы жить / Сезон: 1 / Серии: 1-4 из 13 (Максим Свешников) [2020, Драма, комедия, WEBRip-AVC] pb.wtf

257 причин, чтобы жить через торрент pb.wtf

Раздают: 2 [ 466 KB/s ] Качают: 3 [ 0 KB/s ]
Размер: 1.22 GB | Добавлен: 11 ч. назад | Торрент скачан:9 раз
Скачать  

26-03-2020 04:12 257 причин, чтобы жить Скачать торрент  

257 причин, чтобы жить
Год выпуска: 2020
Страна: Россия
Жанр: Драма, комедия
Продолжительность: ~ 00:25:00
Субтитры: отсутствуют

Режиссер: Максим Свешников

В ролях: Полина Максимова, Анна Невская, Сергей Годин, Роман Маякин, Анастасия Попова (II), Дарья Руденок, Егор Корешков, Мария Фомина, Юлия Топольницкая, Максим Лагашкин, Тимоти Сэлл, Маргарита Дьяченкова

Описание: День, когда 30-летняя Женя Коврова победила тяжелую болезнь, стал не самым счастливым, а самым кошмарным в ее жизни. Оказалось, что здоровой она не нужна ни своему парню, который был с ней из жалости, ни сестре, которая умело зарабатывала на благотворительных сборах. А коллеги по работе и вовсе не надеялись на выздоровление Жени и не ждали ее возвращения. Как найти в себе силы начать новую жизнь, если она так больно бьет по голове? Ответом становится дневник, в котором Женя случайно находит список из 257 желаний - сложных и простых, приземленных и возвышенных, серьезных и по-детски глупых. Все это Женя хотела исполнить после выздоровления, а, значит, сейчас у нее появилось 257 причин не бояться трудностей, взглянуть на мир по-другому, начать жить на полную катушку и стать, наконец, счастливой!

Качество: WEBRip-AVC
Формат: MKV

Видео: MPEG-4 AVC, ~ 1600 Кбит/с, 1024x432, 25 кадр/с
Аудио: 48.0 kHz, AC3 Dolby Digital, 2/0 (L,R) ch, ~ 192 kbps
скриншот  скриншот  скриншот  скриншот  

General
Unique ID : 170226087024014695846244328039831488900 (0x80105A11A1C578CF8408A5B5A5AAC984)
Complete name : F:\257 причин, чтобы жить.(2020).WEBRip.(AVC).Files-x\01.257.prichin.chtoby.zhit.(2020).WEBRip.(AVC).by.Серый1779.Files-x.mkv
Format : Matroska
Format version : Version 2
File size : 355 MiB
Duration : 27 min 39 s
Overall bit rate : 1 793 kb/s
Encoded date : UTC 2020-03-25 22:39:29
Writing application : mkvmerge v7.8.0 ('River Man') 32bit built on Apr 3 2015 12:11:22
Writing library : libebml v1.3.1 + libmatroska v1.4.2

Video
ID : 1
Format : AVC
Format/Info : Advanced Video Codec
Format profile : High@L4.1
Format settings : CABAC / 9 Ref Frames
Format settings, CABAC : Yes
Format settings, RefFrames : 9 frames
Codec ID : V_MPEG4/ISO/AVC
Duration : 27 min 39 s
Bit rate : 1 600 kb/s
Width : 1 024 pixels
Height : 432 pixels
Display aspect ratio : 2.40:1
Frame rate mode : Constant
Frame rate : 25.000 FPS
Color space : YUV
Chroma subsampling : 4:2:0
Bit depth : 8 bits
Scan type : Progressive
Bits/(Pixel*Frame) : 0.145
Stream size : 310 MiB (87%)
Writing library : x264 core 146 r2538 121396c
Encoding settings : cabac=1 / ref=9 / deblock=1:-2:-1 / analyse=0x3:0x133 / me=umh / subme=9 / psy=1 / psy_rd=1.00:0.15 / mixed_ref=1 / me_range=32 / chroma_me=1 / trellis=2 / 8x8dct=1 / cqm=0 / deadzone=21,11 / fast_pskip=0 / chroma_qp_offset=-3 / threads=18 / lookahead_threads=3 / sliced_threads=0 / nr=0 / decimate=1 / interlaced=0 / bluray_compat=0 / constrained_intra=0 / bframes=9 / b_pyramid=2 / b_adapt=2 / b_bias=0 / direct=1 / weightb=1 / open_gop=0 / weightp=2 / keyint=250 / keyint_min=25 / scenecut=40 / intra_refresh=0 / rc=2pass / mbtree=0 / bitrate=1600 / ratetol=1.0 / qcomp=0.60 / qpmin=0 / qpmax=69 / qpstep=4 / cplxblur=20.0 / qblur=0.5 / ip_ratio=1.40 / pb_ratio=1.30 / aq=2:1.00
Default : Yes
Forced : No
Color range : Limited
Color primaries : BT.709
Transfer characteristics : BT.709
Matrix coefficients : BT.709

Audio
ID : 2
Format : AC-3
Format/Info : Audio Coding 3
Format settings, Endianness : Big
Codec ID : A_AC3
Duration : 27 min 39 s
Bit rate mode : Constant
Bit rate : 192 kb/s
Channel(s) : 2 channels
Channel positions : Front: L R
Sampling rate : 48.0 kHz
Frame rate : 31.250 FPS (1536 SPF)
Bit depth : 16 bits
Compression mode : Lossy
Stream size : 38.0 MiB (11%)
Service kind : Complete Main
Default : Yes
Forced : No

При каждом добавлении создаётся новый торрент. Чтобы начать докачку новой серии, пользователям необходимо сделать следующее:
- остановить скачивание;
- удалить старый торрент у себя из клиента (старые серии удалять не надо);
- скачать новый торрент и запустить его у себя в клиенте вместо старого, при этом указать клиенту путь в старую папку, куда и должно происходить скачивание новых серий.
pb.wtf



Скачать 257 причин, чтобы жить через торрент https://i111.fastpic.ru/big/2020/0326/fc/79fbbc0f9e7627e5697d795bb1bcfdfc.jpg Скачать фильм 257 причин, чтобы жить через торрент бесплантно в хорошем качестве Описание: День, когда 30-летняя Женя Коврова победила тяжелую болезнь, стал не самым счастливым, а самым кошмарным в ее жизни. Оказалось, ... 10 10 3
Торрент: Зарегистрирован [2020-04-09 11:44] · скачан: 9 раз
Статус: √ проверено
Размер: 1.22 GB
Как cкачать? Как скачать 257 причин, чтобы жить через торрент | qTorrent

% Раздел Тема Автор DL S | L
Наши сериалы [ 1.22 GB ] 257 причин чтобы жить / Сезон: 1 / Серии: 1-4 из 13 [2020 WEBRip] bober100 Скачать
1 | 1

28-11-2019 20:33  

Отключить всю рекламу на сайте

    Дорогой пользователь! Огромная просьба, поблагодарите релизера, оцените раздачу и оставьте свои комментарий, если Вы скачали 257 причин, чтобы жить через торрент бесплатно! Внесите свою лепту в развитие PiratBit!
    Комментировать посты могут только пользователи прошедшие не сложную регистрацию
    Показать сообщения:    

    257 причин, чтобы жить через торрент
    Скачать бесплатно 257 причин, чтобы жить
    257 причин, чтобы жить скачать торрент
    257 причин, чтобы жить смотреть онлайн
    Cкачать фильм 257 причин, чтобы жить бесплатно
    257 причин, чтобы жить скачать торрент в хорошем качестве
    257 причин, чтобы жить смотреть онлайн бесплатно в хорошем качестве


    Вы не можете начинать темы
    Вы не можете отвечать на сообщения
    Вы не можете редактировать свои сообщения
    Вы не можете удалять свои сообщения
    Вы не можете голосовать в опросах
    Вы не можете прикреплять файлы к сообщениям
    Вы можете скачивать файлы