Ссылка на приватное зеркало всего за 1$. Внимание количество ограничено!!!

iTunes

iTunes

iTunes

1

iTunes

iTunes

iTunes

iTunes

iTunes

30
pack

Новость дня

ВАЖНО

!!Акция!!

Alien_RageХит недели

RePack

Resident Evil 21

ИГРА 18+

pack

RePack

jed

!!Акция!!

Alien_Rage

RePack

fifa19

RePack

Assassins Creed: Odyssey

RePack

NEED FOR SPEED™ PAYBACK

4 сезон

9 сезон

Бесстыжие 9 сезон

Все сериалы

все сериалы на PB.wtf

RePack

FAR CRY 5
  

257 причин, чтобы жить / Сезон: 1 / Серии: 1-4 из 13 (Максим Свешников) [2020, Драма, комедия, WEBRip] pb.wtf

257 причин, чтобы жить через торрент pb.wtf

Размер: 1.22 GB | Добавлен: 13 ч. назад | Торрент скачан:3 раза
Скачать  

26-03-2020 06:12 257 причин, чтобы жить Скачать торрент  

257 причин, чтобы жить
Год выпуска: 2020
Страна: Россия
Жанр: Драма, комедия
Продолжительность: ~ 00:25:00
Субтитры: отсутствуют

Режиссер: Максим Свешников

В ролях: Полина Максимова, Анна Невская, Сергей Годин, Роман Маякин, Анастасия Попова (II), Дарья Руденок, Егор Корешков, Мария Фомина, Юлия Топольницкая, Максим Лагашкин, Тимоти Сэлл, Маргарита Дьяченкова

Описание: День, когда 30-летняя Женя Коврова победила тяжелую болезнь, стал не самым счастливым, а самым кошмарным в ее жизни. Оказалось, что здоровой она не нужна ни своему парню, который был с ней из жалости, ни сестре, которая умело зарабатывала на благотворительных сборах. А коллеги по работе и вовсе не надеялись на выздоровление Жени и не ждали ее возвращения. Как найти в себе силы начать новую жизнь, если она так больно бьет по голове? Ответом становится дневник, в котором Женя случайно находит список из 257 желаний - сложных и простых, приземленных и возвышенных, серьезных и по-детски глупых. Все это Женя хотела исполнить после выздоровления, а, значит, сейчас у нее появилось 257 причин не бояться трудностей, взглянуть на мир по-другому, начать жить на полную катушку и стать, наконец, счастливой!

Качество: WEBRip
Формат: AVI

Видео: XviD, ~ 1600 Кбит/с, 720x304, 25 кадр/с
Аудио: 48.0 kHz, AC3 Dolby Digital, 2/0 (L,R) ch, ~ 192 kbps
скриншот  скриншот  скриншот  скриншот  скриншот  

General
Complete name: H:\fiiles x\257 причин, чтобы жить.2020 WEB-DLRip.Files-x\02. 257 причин, чтобы жить.2020 WEB-DLRip.Files-x..avi
Format: AVI
Format/Info: Audio Video Interleave
File size: 296 MiB
Duration: 22mn 59s
Overall bit rate: 1 801 Kbps
Writing application: VirtualDubMod 1.5.10.3 | www.virtualdub-fr.org || (build 2550/release)
Writing library: VirtualDubMod build 2550/release

Video
ID: 0
Format: MPEG-4 Visual
Format profile: Advanced Simple@L5
Format settings, BVOP: 1
Format settings, QPel: No
Format settings, GMC: No warppoints
Format settings, Matrix: Custom
Codec ID: XVID
Codec ID/Hint: XviD
Duration: 22mn 59s
Bit rate: 1 600 Kbps
Width: 720 pixels
Height: 304 pixels
Display aspect ratio: 2.35:1
Frame rate: 25.000 fps
Color space: YUV
Chroma subsampling: 4:2:0
Bit depth: 8 bits
Scan type: Progressive
Compression mode: Lossy
Bits/(Pixel*Frame): 0.292
Stream size: 263 MiB (89%)
Writing library: XviD 73

Audio
ID: 1
Format: AC-3
Format/Info: Audio Coding 3
Mode extension: CM (complete main)
Codec ID: 2000
Duration: 22mn 59s
Bit rate mode: Constant
Bit rate: 192 Kbps
Channel(s): 2 channels
Channel positions: Front: L R
Sampling rate: 48.0 KHz
Bit depth: 16 bits
Compression mode: Lossy
Stream size: 31.6 MiB (11%)
Alignment: Split accross interleaves
Interleave, duration: 40 ms (1.00 video frame)
Interleave, preload duration: 500 ms

Раздача ведётся путём добавления новых серий, при каждом добавлении создаётся новый торрент. Чтобы начать докачку новой серии, пользователям необходимо сделать следующее:
- Остановить скачивание.
- Удалить старый торрент у себя из клиента (старые серии удалять не надо).
- Скачать новый торрент и запустить его у себя в клиенте вместо старого, при этом указать клиенту путь в старую папку куда и должно происходить скачивание новых серий.
Ваш клиент при этом должен произвести хеширование (проверку) старой папки (если не производит сам - помогите ему сделать это), и будет докачивать только те серии которых у вас ещё нет. Старые серии при этом не удаляются, а продолжают раздаваться!
pb.wtf



Скачать 257 причин, чтобы жить через торрент https://i111.fastpic.ru/big/2020/0326/fc/79fbbc0f9e7627e5697d795bb1bcfdfc.jpg Скачать фильм 257 причин, чтобы жить через торрент бесплантно в хорошем качестве Описание: День, когда 30-летняя Женя Коврова победила тяжелую болезнь, стал не самым счастливым, а самым кошмарным в ее жизни. Оказалось, ... 10 10 3
Торрент: Зарегистрирован [2020-04-09 11:32] · скачан: 3 раз
Статус: √ проверено
Размер: 1.22 GB
Как cкачать? Как скачать 257 причин, чтобы жить через торрент | qTorrent

% Раздел Тема Автор DL S | L
Наши сериалы [ 1.22 GB ] 257 причин чтобы жить / Сезон: 1 / Серии: 1-4 из 13 [2020 WEBRip-AVC] bober100 Скачать
3 | 2

28-11-2019 20:33  

Отключить всю рекламу на сайте

    Дорогой пользователь! Огромная просьба, поблагодарите релизера, оцените раздачу и оставьте свои комментарий, если Вы скачали 257 причин, чтобы жить через торрент бесплатно! Внесите свою лепту в развитие PiratBit!
    Комментировать посты могут только пользователи прошедшие не сложную регистрацию
    Показать сообщения:    

    257 причин, чтобы жить через торрент
    Скачать бесплатно 257 причин, чтобы жить
    257 причин, чтобы жить скачать торрент
    257 причин, чтобы жить смотреть онлайн
    Cкачать фильм 257 причин, чтобы жить бесплатно
    257 причин, чтобы жить скачать торрент в хорошем качестве
    257 причин, чтобы жить смотреть онлайн бесплатно в хорошем качестве


    Вы не можете начинать темы
    Вы не можете отвечать на сообщения
    Вы не можете редактировать свои сообщения
    Вы не можете удалять свои сообщения
    Вы не можете голосовать в опросах
    Вы не можете прикреплять файлы к сообщениям
    Вы можете скачивать файлы