Ссылка на приватное зеркало всего за 1$. Внимание количество ограничено!!!

iTunes

iTunes

iTunes

1

iTunes

iTunes

iTunes

iTunes

iTunes

30
pack

Новость дня

ВАЖНО

!!Акция!!

Alien_RageХит недели

RePack

Resident Evil 21

ИГРА 18+

pack

RePack

jed

!!Акция!!

Alien_Rage

RePack

fifa19

RePack

Assassins Creed: Odyssey

RePack

NEED FOR SPEED™ PAYBACK

4 сезон

9 сезон

Бесстыжие 9 сезон

Все сериалы

все сериалы на PB.wtf

RePack

FAR CRY 5
  

Око лукавого / L'oeil du malin (Клод Шаброль) [1962, драма, BDRip 720p by msltel] AVO pb.wtf

Око лукавого через торрент pb.wtf

Раздают: 1 [ 0 KB/s ]
Размер: 3.57 GB | Добавлен: 13 д. назад | Торрент скачан:1 раз
Скачать  

26-03-2020 06:55 Око лукавого Скачать торрент  

Название: Око лукавого
Оригинальное название: L'oeil du malin
Год выпуска: 1962
Страна: Италия, Франция
Жанр: драма
Продолжительность: 01:20:01
Перевод: авторский
Режиссер: Клод Шаброль
В ролях: Жак Шаррье, Стефан Одран, Вальтер Райер, Эрика Твир, Михаэль Мюнцер, Клод Роме, Луис Ле Пин, Жан Дэвис, Даниэль Буланже, Андре Баден

О фильме: Скучающий журналист заброшен по заданию редакции в маленький провинциальный баварский городок, где обнаруживает зажиточную пару: симпатичную женщину и её мужа, успешного писателя. Став другом семьи, он по-чёрному завидует им, считая, что эта женщина должна принадлежать ему. В итоге его поступков она становится… ничьей.



Качество: BDRip 720p
Формат: MKV
Видео: MPEG-4 AVC, 6005 Кбит/с, 1200x720
Аудио 1: русский, AC3, 192 kbps, 2 ch, 48 kHz [авторский, Роман Янкелевич]
Аудио 2: французский, AC3, 192 kbps, 2 ch, 48 kHz [оригинал]
Субтитры 1: русские (VPN777)
Субтитры 2: английские
Главы/чаптеры
Общее
Уникальный идентификатор : 179375626040144479784386317023482580029 (0x86F27D2BB8C9886291D9CE8ABAFD8C3D)
Полное имя : D:\Video\Око лукавого.1962.BDRip 720p by msltel.mkv
Формат : Matroska
Версия формата : Version 4
Размер файла : 3,57 Гбайт
Продолжительность : 1 ч. 20 м.
Общий поток : 6391 Кбит/сек
Название фильма : Rip by msltel
Дата кодирования : UTC 2020-03-26 02:06:20
Программа кодирования : mkvmerge v8.2.0 ('World of Adventure') 64bit
Библиотека кодирования : libebml v1.3.1 + libmatroska v1.4.2

Видео
Идентификатор : 1
Формат : AVC
Формат/Информация : Advanced Video Codec
Профиль формата : High@L4.1
Настройки формата : CABAC / 9 Ref Frames
Параметр CABAC формата : Да
Параметр RefFrames формата : 9 кадров
Идентификатор кодека : V_MPEG4/ISO/AVC
Продолжительность : 1 ч. 20 м.
Битрейт : 6005 Кбит/сек
Ширина : 1200 пикселей
Высота : 720 пикселей
Соотношение сторон : 5:3
Режим частоты кадров : Постоянный
Частота кадров : 23,976 (24000/1001) кадра/сек
Цветовое пространство : YUV
Субдискретизация насыщенности : 4:2:0
Битовая глубина : 8 бит
Тип развёртки : Прогрессивная
Бит/(Пиксели*Кадры) : 0.290
Размер потока : 3,36 Гбайт (94%)
Библиотека кодирования : x264 core 159 r2991 1771b55
Настройки программы : cabac=1 / ref=9 / deblock=1:-2:-2 / analyse=0x3:0x113 / me=umh / subme=11 / psy=1 / psy_rd=1.00:0.15 / mixed_ref=1 / me_range=32 / chroma_me=1 / trellis=2 / 8x8dct=1 / cqm=0 / deadzone=21,11 / fast_pskip=0 / chroma_qp_offset=-3 / threads=6 / lookahead_threads=1 / sliced_threads=0 / nr=0 / decimate=1 / interlaced=0 / bluray_compat=0 / constrained_intra=0 / bframes=12 / b_pyramid=2 / b_adapt=2 / b_bias=0 / direct=1 / weightb=1 / open_gop=0 / weightp=2 / keyint=230 / keyint_min=23 / scenecut=40 / intra_refresh=0 / rc_lookahead=40 / rc=crf / mbtree=1 / crf=21.0 / qcomp=0.60 / qpmin=0 / qpmax=69 / qpstep=4 / vbv_maxrate=50000 / vbv_bufsize=62500 / crf_max=0.0 / nal_hrd=none / filler=0 / ip_ratio=1.40 / aq=1:1.00
Язык : French
Default : Да
Forced : Нет

Аудио #1
Идентификатор : 2
Формат : AC-3
Формат/Информация : Audio Coding 3
Коммерческое название : Dolby Digital
Идентификатор кодека : A_AC3
Продолжительность : 1 ч. 19 м.
Вид битрейта : Постоянный
Битрейт : 192 Кбит/сек
Каналы : 2 канала
ChannelLayout : L R
Частота : 48,0 КГц
Частота кадров : 31,250 кадров/сек (1536 SPF)
Метод сжатия : С потерями
Размер потока : 110 Мбайт (3%)
Заголовок : Роман Янкелевич
Язык : Russian
ServiceKind/String : Complete Main
Default : Да
Forced : Нет

Аудио #2
Идентификатор : 3
Формат : AC-3
Формат/Информация : Audio Coding 3
Коммерческое название : Dolby Digital
Идентификатор кодека : A_AC3
Продолжительность : 1 ч. 19 м.
Вид битрейта : Постоянный
Битрейт : 192 Кбит/сек
Каналы : 2 канала
ChannelLayout : L R
Частота : 48,0 КГц
Частота кадров : 31,250 кадров/сек (1536 SPF)
Метод сжатия : С потерями
Размер потока : 110 Мбайт (3%)
Заголовок : original
Язык : French
ServiceKind/String : Complete Main
Default : Нет
Forced : Нет

Текст #1
Идентификатор : 4
Формат : UTF-8
Идентификатор кодека : S_TEXT/UTF8
Идентификатор кодека/Информация : UTF-8 Plain Text
Продолжительность : 1 ч. 18 м.
Битрейт : 84 бит/сек
ElementCount : 783
Размер потока : 48,7 Кбайт (0%)
Заголовок : русские VPN777
Язык : Russian
Default : Нет
Forced : Нет

Текст #2
Идентификатор : 5
Формат : UTF-8
Идентификатор кодека : S_TEXT/UTF8
Идентификатор кодека/Информация : UTF-8 Plain Text
Продолжительность : 1 ч. 18 м.
Битрейт : 44 бит/сек
ElementCount : 739
Размер потока : 25,5 Кбайт (0%)
Заголовок : английские
Язык : English
Default : Нет
Forced : Нет

Меню
00:00:00.000 : en:Chapter 1
00:12:30.541 : en:Chapter 2
00:21:31.707 : en:Chapter 3
00:30:51.641 : en:Chapter 4
00:37:18.278 : en:Chapter 5
00:46:12.019 : en:Chapter 6
00:56:28.594 : en:Chapter 7
01:05:11.199 : en:Chapter 8
01:12:01.484 : en:Chapter 9
pb.wtf



Скачать Око лукавого через торрент https://c.radikal.ru/c30/2003/61/b09d0f29cde2.jpg Скачать фильм Око лукавого через торрент бесплантно в хорошем качестве О фильме: Скучающий журналист заброшен по заданию редакции в маленький провинциальный баварский городок, где обнаруживает зажиточную пару: ... 5 10 1
Info! Серебряная раздача, засчитывается только 50% скачанного.
Торрент: Зарегистрирован [2020-03-26 06:55] · скачан: 1 раз
Статус: √ проверено
Размер: 3.57 GB
Как cкачать? Как скачать Око лукавого через торрент | qTorrent

28-11-2019 20:33  

Отключить всю рекламу на сайте

    Дорогой пользователь! Огромная просьба, поблагодарите релизера, оцените раздачу и оставьте свои комментарий, если Вы скачали Око лукавого через торрент бесплатно! Внесите свою лепту в развитие PiratBit!
    Комментировать посты могут только пользователи прошедшие не сложную регистрацию
    Показать сообщения:    

    Око лукавого через торрент
    Скачать бесплатно Око лукавого
    Око лукавого скачать торрент
    Око лукавого смотреть онлайн
    Cкачать фильм Око лукавого бесплатно
    Око лукавого скачать торрент в хорошем качестве
    Око лукавого смотреть онлайн бесплатно в хорошем качестве


    Вы не можете начинать темы
    Вы не можете отвечать на сообщения
    Вы не можете редактировать свои сообщения
    Вы не можете удалять свои сообщения
    Вы не можете голосовать в опросах
    Вы не можете прикреплять файлы к сообщениям
    Вы можете скачивать файлы