Ссылка на приватное зеркало нашего сайта всего за 1$. Внимание количество ограничено!!!

2 сезон

iTunes

1 сезон

1

iTunes

iTunes

iTunes

1 сезон

RePack

30

ИГРА 18+

pack

ВАЖНО

!!Акция!!

Alien_RageХит недели

RePack

MK11
pack

Забери бонус

RePack

jed

!!Акция!!

Alien_Rage

RePack

fifa19

RePack

Assassins Creed: Odyssey

RePack

NEED FOR SPEED™ PAYBACK

4 сезон

9 сезон

Бесстыжие 9 сезон

Все сериалы

все сериалы на PB.wtf

RePack

FAR CRY 5
  

Невеста комдива / Сезон: 1 / Серии: 1-8 из 8 (Александр Баранов) [2020, Комедия, мелодрама, WEB-DLRip] pb.wtf

Невеста комдива через торрент pb.wtf

Размер: 5.31 GB | Добавлен: 6 мес. назад | Торрент скачан:26 раз
Скачать  

26-03-2020 20:32 Невеста комдива Скачать торрент  

Невеста комдива
Год выпуска: 2020
Страна: Россия
Жанр: Комедия, мелодрама
Продолжительность: ~ 00:52:00 серия
Субтитры: отсутствуют

Режиссер: Александр Баранов



В ролях: Максим Аверин, Александра Никифорова, Нина Усатова, Евгений Морозов, Анна Якунина, Александра Каштанова, Яна Крайнова, Алексей Коряков, Бибигуль Суюншалина, Виолетта Давыдовская, Олег Масленников-Войтов, Михаил Богдасаров, Ариэль Ласкер, Дмитрий Тополь, Владимир Дубровский (II), Екатерина Вуличенко, Елена Котельникова

Описание: Идейная комсомолка Катя после окончания пединститута отправляется в военный гарнизон Солнечный к своему жениху, с которым знакома только по переписке. На месте выясняется, что Катя нарвалась на афериста, который выдавал себя за командира дивизии, а настоящий генерал Кузин никогда не слышал о Кате! По закону подлости их разговор слышит корреспондент местной газеты. То ли из вредности, то ли по ошибке журналист публикует совместный снимок Кати и генерала. Одна нелепая ошибка круто меняет жизнь героев, порождая массу комичных, а подчас и романтических приключений.

Качество: WEB-DLRip
Формат: AVI

Видео: XviD, ~ 1600 Кбит/с, 720x400, 25 кадр/с
Аудио: 48.0 kHz, AC3 Dolby Digital, 2/0 (L,R) ch, ~ 192 kbps
скриншот  скриншот  скриншот  скриншот  скриншот  

General
Complete name : F:\Невеста комдива.(2019).WEB-DLRip.Files-x\01.Невеста комдива.(2019).WEB-DLRip.by.Серый1779.Files-x.avi
Format : AVI
Format/Info : Audio Video Interleave
File size : 674 MiB
Duration : 52 min 19 s
Overall bit rate : 1 802 kb/s
Writing application : VirtualDubMod 1.5.10.3 | www.virtualdub-fr.org || (build 2550/release)
Writing library : VirtualDubMod build 2550/release

Video
ID : 0
Format : MPEG-4 Visual
Format profile : Advanced Simple@L5
Format settings : BVOP1 / Custom Matrix
Format settings, BVOP : 1
Format settings, QPel : No
Format settings, GMC : No warppoints
Format settings, Matrix : Custom
Codec ID : XVID
Codec ID/Hint : XviD
Duration : 52 min 19 s
Bit rate : 1 600 kb/s
Width : 720 pixels
Height : 400 pixels
Display aspect ratio : 16:9
Frame rate : 25.000 FPS
Color space : YUV
Chroma subsampling : 4:2:0
Bit depth : 8 bits
Scan type : Progressive
Compression mode : Lossy
Bits/(Pixel*Frame) : 0.222
Stream size : 599 MiB (89%)
Writing library : XviD 73

Audio
ID : 1
Format : AC-3
Format/Info : Audio Coding 3
Format settings, Endianness : Big
Codec ID : 2000
Duration : 52 min 19 s
Bit rate mode : Constant
Bit rate : 192 kb/s
Channel(s) : 2 channels
Channel positions : Front: L R
Sampling rate : 48.0 kHz
Frame rate : 31.250 FPS (1536 SPF)
Bit depth : 16 bits
Compression mode : Lossy
Stream size : 71.9 MiB (11%)
Alignment : Split accross interleaves
Interleave, duration : 40 ms (1.00 video frame)
Interleave, preload duration : 500 ms
Service kind : Complete Main

pb.wtf



Скачать Невеста комдива через торрент https://i111.fastpic.ru/big/2020/0309/e7/79d295fa97f07e921d617a027775c1e7.jpg Скачать фильм Невеста комдива через торрент бесплантно в хорошем качестве Описание: Идейная комсомолка Катя после окончания пединститута отправляется в военный гарнизон Солнечный к своему жениху, с которым знакома ... 9.7 10 3
Торрент: Зарегистрирован [2020-03-26 20:32] · скачан: 26 раз
Статус: √ проверено
Размер: 5.31 GB
Как cкачать? Как скачать Невеста комдива через торрент | qTorrent

% Раздел Тема Автор DL S | L
Наши сериалы [ 5.29 GB ] Невеста комдива / Сезон: 1 / Серии: 1-8 из 8 [2020 WEB-DLRip-AVC] bober100 Скачать
1 | 0
Наши сериалы [ 10.68 GB ] Невеста комдива / Сезон: 1 / Серии: 1-8 из 8 [2020 HDTVRip 720p] bober100 Скачать
1 | 0
Наши сериалы [ 22.22 GB ] Невеста комдива / Сезон: 1 / Серии: 1-8 из 8 [2020 HDTV 1080i] bober100 Скачать
1 | 0
Наши сериалы [ 5.29 GB ] Невеста комдива / Сезон: 1 / Серии: 1-8 из 8 [2020 SATRip] bober100 Скачать
1 | 0

28-11-2019 20:33  

Отключить всю рекламу на сайте

    Дорогой пользователь! Огромная просьба, поблагодарите релизера, оцените раздачу и оставьте свои комментарий, если Вы скачали Невеста комдива через торрент бесплатно! Внесите свою лепту в развитие PiratBit!
    Комментировать посты могут только пользователи прошедшие не сложную регистрацию
    Показать сообщения:    

    Невеста комдива через торрент
    Скачать бесплатно Невеста комдива
    Невеста комдива скачать торрент
    Невеста комдива смотреть онлайн
    Cкачать фильм Невеста комдива бесплатно
    Невеста комдива скачать торрент в хорошем качестве
    Невеста комдива смотреть онлайн бесплатно в хорошем качестве


    Вы не можете начинать темы
    Вы не можете отвечать на сообщения
    Вы не можете редактировать свои сообщения
    Вы не можете удалять свои сообщения
    Вы не можете голосовать в опросах
    Вы не можете прикреплять файлы к сообщениям
    Вы можете скачивать файлы