Ссылка на приватное зеркало нашего сайта всего за 1$. Внимание количество ограничено!!!

2 сезон

iTunes

1 сезон

1

2 сезон

2 сезон

iTunes

1 сезон

RePack

30

Новинка

ВАЖНО

ИГРА 18+

pack

RePack

MK11
pack

Забери бонус

RePack

jed

!!Акция!!

Alien_Rage

RePack

fifa19

RePack

Assassins Creed: Odyssey

RePack

NEED FOR SPEED™ PAYBACK

4 сезон

9 сезон

Бесстыжие 9 сезон

Все сериалы

все сериалы на PB.wtf

RePack

FAR CRY 5
  

Marko Hietala (Nightwish) - Pyre Of The Black Heart (Japanese Edition) - 2020/ FLAC/ image +.cue/ lossless/ Heavy, Symphonic, Power Metal pb.wtf

Marko Hietala через торрент pb.wtf

Раздают: 1 [ 0 KB/s ]
Размер: 387 MB | Добавлен: 8 мес. назад | Торрент скачан:7 раз
Скачать  

27-03-2020 13:50 Marko Hietala Скачать торрент  


Marko Hietala (Nightwish) - Pyre Of The Black Heart (Japanese Edition)


Год издания: 2020
Страна: Finland
Жанр: Heavy, Symphonic, Power Metal
Продолжительность: 00:52:07
Лейбл издания: Chaos Reigns
Страна-выпуска диска: Japan
Номер по каталогу: GQCS-90844
Формат: FLAC
Битрейт аудио: Lossless
Тип рипа: image +.cue
Наличие сканов в содержимом раздачи: да


01. Stones (5:15)
02. The Voice Of My Father (4:37)
03. Star, Sand And Shadow (5:01)
04. Dead God's Son (4:42)
05. For You (7:10)
06. I Am The Way (5:06)
07. Runner Of The Railways (3:51)
08. Death March For Freedom (5:02)
09. I Dream (5:38)
10. Truth Shall Set You Free (5:43)

Код:

Exact Audio Copy V1.1 from 23. June 2015

EAC extraction logfile from 17. February 2020, 22:41

Marko Hietala / Pyre Of The Black Heart (GQCS-90844)

Used drive  : PIONEER BD-RW   BDR-209D   Adapter: 0  ID: 5

Read mode               : Secure
Utilize accurate stream : Yes
Defeat audio cache      : Yes
Make use of C2 pointers : No

Read offset correction                      : 667
Overread into Lead-In and Lead-Out          : No
Fill up missing offset samples with silence : Yes
Delete leading and trailing silent blocks   : No
Null samples used in CRC calculations       : Yes
Used interface                              : Installed external ASPI interface

Used output format              : User Defined Encoder
Selected bitrate                : 768 kBit/s
Quality                         : High
Add ID3 tag                     : No
Command line compressor         : C:\Program Files (x86)\Exact Audio Copy\FLAC\FLAC.EXE
Additional command line options : -6 -V -T "ARTIST=%artist%" -T "TITLE=%title%" -T "ALBUM=%albumtitle%" -T "DATE=%year%" -T "TRACKNUMBER=%tracknr%" -T "GENRE=%genre%" -T "COMMENT=%comment%" -T "BAND=%albuminterpret%" -T "ALBUMARTIST=%albuminterpret%" -T "COMPOSER=%composer%" %haslyrics%--tag-from-file=LYRICS="%lyricsfile%"%haslyrics% -T "DISCNUMBER=%cdnumber%" -T "TOTALDISCS=%totalcds%" -T "TOTALTRACKS=%numtracks%" %hascover%--picture="%coverfile%"%hascover% %source% -o %dest%

TOC of the extracted CD

     Track |   Start  |  Length  | Start sector | End sector
    ---------------------------------------------------------
        1  |  0:00.00 |  5:15.12 |         0    |    23636
        2  |  5:15.12 |  4:37.01 |     23637    |    44412
        3  |  9:52.13 |  5:01.33 |     44413    |    67020
        4  | 14:53.46 |  4:42.14 |     67021    |    88184
        5  | 19:35.60 |  7:10.31 |     88185    |   120465
        6  | 26:46.16 |  5:05.43 |    120466    |   143383
        7  | 31:51.59 |  3:51.25 |    143384    |   160733
        8  | 35:43.09 |  5:02.22 |    160734    |   183405
        9  | 40:45.31 |  5:38.17 |    183406    |   208772
       10  | 46:23.48 |  5:43.09 |    208773    |   234506

Range status and errors

Selected range

     Filename E:\MUSIC\Marko Hietala - Pyre Of The Black Heart (GQCS-90844).wav

     Peak level 100.0 %
     Extraction speed 7.4 X
     Range quality 100.0 %
     Test CRC 20325B8F
     Copy CRC 20325B8F
     Copy OK

No errors occurred

AccurateRip summary

Track  1  not present in database
Track  2  not present in database
Track  3  not present in database
Track  4  not present in database
Track  5  not present in database
Track  6  not present in database
Track  7  not present in database
Track  8  not present in database
Track  9  not present in database
Track 10  not present in database

None of the tracks are present in the AccurateRip database

End of status report

Код:

REM GENRE Metal
REM DATE 2019
REM DISCID 950C360A
REM COMMENT "ExactAudioCopy v1.1"
PERFORMER "Marko Hietala"
TITLE "Pyre Of The Black Heart (GQCS-90844)"
FILE "Marko Hietala - Pyre Of The Black Heart (GQCS-90844).flac" WAVE
  TRACK 01 AUDIO
    TITLE "Stones"
    PERFORMER "Marko Hietala"
    INDEX 01 00:00:00
  TRACK 02 AUDIO
    TITLE "The Voice Of My Father"
    PERFORMER "Marko Hietala"
    INDEX 01 05:15:12
  TRACK 03 AUDIO
    TITLE "Star, Sand And Shadow"
    PERFORMER "Marko Hietala"
    INDEX 01 09:52:13
  TRACK 04 AUDIO
    TITLE "Dead God's Son"
    PERFORMER "Marko Hietala"
    INDEX 01 14:53:46
  TRACK 05 AUDIO
    TITLE "For You"
    PERFORMER "Marko Hietala"
    INDEX 01 19:35:60
  TRACK 06 AUDIO
    TITLE "I Am The Way"
    PERFORMER "Marko Hietala"
    INDEX 01 26:46:16
  TRACK 07 AUDIO
    TITLE "Runner Of The Railways"
    PERFORMER "Marko Hietala"
    INDEX 01 31:51:59
  TRACK 08 AUDIO
    TITLE "Death March For Freedom"
    PERFORMER "Marko Hietala"
    INDEX 01 35:43:09
  TRACK 09 AUDIO
    TITLE "I Dream"
    PERFORMER "Marko Hietala"
    INDEX 01 40:45:31
  TRACK 10 AUDIO
    TITLE "Truth Shall Set You Free"
    PERFORMER "Marko Hietala"
    INDEX 01 46:23:48






pb.wtf



Скачать Marko Hietala через торрент https://i111.fastpic.ru/big/2020/0327/a0/b59cf93b7292519c160fb8bd50c6eea0.png Скачать фильм Marko Hietala через торрент бесплантно в хорошем качестве Трэклист Stones (5:15) The Voice Of My Father (4:37) Star, Sand And Shadow (5:01) Dead God's Son (4:42) For You ... 10 10 1
Торрент: Зарегистрирован [2020-03-27 13:50] · скачан: 7 раз
Статус: √ проверено
Размер: 387 MB
Как cкачать? Как скачать Marko Hietala через торрент | qTorrent

28-11-2019 20:33  

Отключить всю рекламу на сайте

    Дорогой пользователь! Огромная просьба, поблагодарите релизера, оцените раздачу и оставьте свои комментарий, если Вы скачали Marko Hietala через торрент бесплатно! Внесите свою лепту в развитие PiratBit!
    Комментировать посты могут только пользователи прошедшие не сложную регистрацию
    Показать сообщения:    

    Marko Hietala через торрент
    Скачать бесплатно Marko Hietala
    Marko Hietala скачать торрент
    Marko Hietala смотреть онлайн
    Cкачать фильм Marko Hietala бесплатно
    Marko Hietala скачать торрент в хорошем качестве
    Marko Hietala смотреть онлайн бесплатно в хорошем качестве


    Вы не можете начинать темы
    Вы не можете отвечать на сообщения
    Вы не можете редактировать свои сообщения
    Вы не можете удалять свои сообщения
    Вы не можете голосовать в опросах
    Вы не можете прикреплять файлы к сообщениям
    Вы можете скачивать файлы