Ссылка на приватное зеркало нашего сайта всего за 1$. Внимание количество ограничено!!!

2 сезон

iTunes

1 сезон

1

iTunes

iTunes

iTunes

1 сезон

RePack

30

ИГРА 18+

pack

ВАЖНО

!!Акция!!

Alien_RageХит недели

RePack

MK11
pack

Забери бонус

RePack

jed

!!Акция!!

Alien_Rage

RePack

fifa19

RePack

Assassins Creed: Odyssey

RePack

NEED FOR SPEED™ PAYBACK

4 сезон

9 сезон

Бесстыжие 9 сезон

Все сериалы

все сериалы на PB.wtf

RePack

FAR CRY 5
  

Нож в сердце / Серии: 1-2 из 2 (Карен Захаров) [2020, Детектив, WEB-DLRip] pb.wtf

Нож в сердце через торрент pb.wtf

Размер: 1.15 GB | Добавлен: 6 мес. назад | Торрент скачан:21 раз
Скачать  

27-03-2020 19:18 Нож в сердце Скачать торрент  

Нож в сердце
Год выпуска: 2020
Страна: Россия
Жанр: Детектив
Продолжительность: ~ 00:45:00
Субтитры: отсутствуют

Режиссер: Карен Захаров

В ролях: Виктория Полторак, Евгений Миллер, Марк Доронин, Анастасия Балякина, Дмитрий Гусев, Тамара Акулова, Татьяна Филатова, Константин Третьяков, Валерия Кристиансен, Владимир Андриянов, Анна Воропаева, Сергей Бредюк, Владимир Фоков, Веста Буркот, Наталья Унгард, Евгения Лютая, Александр Браженко

Описание: Маша в одиночку воспитывает сына и ведет собственный бизнес – у нее агентство по оказанию бытовых услуг. Стирка, уборка, готовка борщей – такие вот будни, которые можно отдать на аутсорсинг. Изюминка в том, что в агентстве работают мужчины. И вот однажды Машиному агентству заказывают обслуживание частного ужина. А наутро хозяйку дома находят в собственной постели с ножом в сердце. Главный подозреваемый – один из Машиных сотрудников, Игорь. Конечно, Маша уверена, что это какая-то ошибка…

Качество: WEB-DLRip
Формат: AVI

Видео: XviD, ~ 1600 Кбит/с, 720x400
Аудио: 48.0 kHz, AC3 Dolby Digital, 2/0 (L,R) ch, ~ 192 kbps
скриншот  скриншот  скриншот  скриншот  скриншот  

Общее
Полное имя : C:\Нож в сердце.2020.WEB-DLRip.Files-x\01. Нож в сердце.2020.WEB-DLRip.Files-x.avi
Формат : AVI
Формат/Информация : Audio Video Interleave
Размер файла : 604 Мбайт
Продолжительность : 46 м. 50 с.
Общий поток : 1802 Кбит/сек
Программа кодирования : VirtualDubMod 1.5.10.3 | www.virtualdub-fr.org || (build 2550/release)
Библиотека кодирования : VirtualDubMod build 2550/release

Видео
Идентификатор : 0
Формат : MPEG-4 Visual
Профиль формата : Advanced Simple@L5
Настройки формата : BVOP1 / Custom Matrix
Параметр BVOP формата : 1
Параметр QPel формата : Нет
Параметр GMC формата : Без точки перехода
Параметр матрицы формата : Выборочная
Идентификатор кодека : XVID
Идентификатор кодека/Подсказка : XviD
Продолжительность : 46 м. 50 с.
Битрейт : 1529 Кбит/сек
Ширина : 720 пикселей
Высота : 400 пикселей
Соотношение сторон : 16:9
Частота кадров : 25,000 кадров/сек
Цветовое пространство : YUV
Субдискретизация насыщенности : 4:2:0
Битовая глубина : 8 бит
Тип развёртки : Прогрессивная
Метод сжатия : С потерями
Бит/(Пиксели*Кадры) : 0.212
Размер потока : 512 Мбайт (85%)
Библиотека кодирования : XviD 73

Аудио
Идентификатор : 1
Формат : AC-3
Формат/Информация : Audio Coding 3
Коммерческое название : Dolby Digital
Идентификатор кодека : 2000
Продолжительность : 46 м. 50 с.
Вид битрейта : Постоянный
Битрейт : 192 Кбит/сек
Каналы : 2 канала
ChannelLayout : L R
Частота : 48,0 КГц
Частота кадров : 31,250 кадров/сек (1536 SPF)
Битовая глубина : 16 бит
Метод сжатия : С потерями
Размер потока : 64,3 Мбайт (11%)
Выравнивание : Разделение по промежуткам
ServiceKind/String : Complete Main

pb.wtf



Скачать Нож в сердце через торрент https://i111.fastpic.ru/big/2020/0327/9b/ebd7d733e5cd3779c34ed43145d8459b.jpg Скачать фильм Нож в сердце через торрент бесплантно в хорошем качестве Описание: Маша в одиночку воспитывает сына и ведет собственный бизнес – у нее агентство по оказанию бытовых услуг. Стирка, уборка, готовка ... 10 10 2
Торрент: Зарегистрирован [2020-03-28 04:39] · скачан: 21 раз
Статус: √ проверено
Размер: 1.15 GB
Как cкачать? Как скачать Нож в сердце через торрент | qTorrent

% Раздел Тема Автор DL S | L
Наши сериалы [ 1.14 GB ] Нож в сердце / Серии: 1-2 из 2 [2020 WEB-DLRip-AVC] bober100 Скачать
1 | 0
Наши сериалы [ 1.17 GB ] Нож в сердце / Серии: 1-2 из 2 [2020 SATRip] bober100 Скачать
1 | 0
Наши сериалы [ 1.07 GB ] Нож в сердце / Серии: 1-2 из 2 [2020 SATRip-AVC] aleksan55 Скачать
3 | 0

28-11-2019 20:33  

Отключить всю рекламу на сайте

    Дорогой пользователь! Огромная просьба, поблагодарите релизера, оцените раздачу и оставьте свои комментарий, если Вы скачали Нож в сердце через торрент бесплатно! Внесите свою лепту в развитие PiratBit!
    Комментировать посты могут только пользователи прошедшие не сложную регистрацию
    Показать сообщения:    

    Нож в сердце через торрент
    Скачать бесплатно Нож в сердце
    Нож в сердце скачать торрент
    Нож в сердце смотреть онлайн
    Cкачать фильм Нож в сердце бесплатно
    Нож в сердце скачать торрент в хорошем качестве
    Нож в сердце смотреть онлайн бесплатно в хорошем качестве


    Вы не можете начинать темы
    Вы не можете отвечать на сообщения
    Вы не можете редактировать свои сообщения
    Вы не можете удалять свои сообщения
    Вы не можете голосовать в опросах
    Вы не можете прикреплять файлы к сообщениям
    Вы можете скачивать файлы