Ссылка на приватное зеркало нашего сайта всего за 1$. Внимание количество ограничено!!!

2 сезон

iTunes

1 сезон

1

iTunes

iTunes

iTunes

1 сезон

RePack

30

ИГРА 18+

pack

ВАЖНО

!!Акция!!

Alien_RageХит недели

RePack

MK11
pack

Забери бонус

RePack

jed

!!Акция!!

Alien_Rage

RePack

fifa19

RePack

Assassins Creed: Odyssey

RePack

NEED FOR SPEED™ PAYBACK

4 сезон

9 сезон

Бесстыжие 9 сезон

Все сериалы

все сериалы на PB.wtf

RePack

FAR CRY 5
  

Вивариум / Vivarium (Лоркан Финнеган) [2019, фантастика, детектив, BDRip 1080p] DUB [iTunes] +MVO [HDRezka Studio] pb.wtf

Вивариум через торрент pb.wtf

Раздают: 8 [ 111 KB/s ]
Размер: 12.44 GB | Добавлен: 1 мес. 9 д. назад | Торрент скачан:178 раз
Скачать  

28-03-2020 04:23 Вивариум Скачать торрент  

Вивариум | Vivarium
Год выпуска: 2019
Страна: Ирландия, Дания, Бельгия
Студия: Lovely Productions, Fantastic Films, Frakas Productions
Жанр: фантастика, детектив
Продолжительность: 01:38:37
Перевод(ы):
#1: Дублированный | iTunes
#2: Профессиональный многоголосый | HDRezka Studio
Субтитры: Русские (Forced, 2 x full), английские

Режиссер: Лоркан Финнеган

rating

В ролях: Джесси Айзенберг, Имоджен Путс, Джонатан Арис, Ольга Верли, Инна Хардвик, Сенан Дженнингс, Молли Макканн, Даниэль Райан, Шена Харт, Джек Хадсон

Описание: В поисках идеального дома молодая пара знакомится со странным агентом по недвижимости. Он привозит их в новый поселок в пригороде, а затем исчезает. Том и Джемма с ужасом понимают, что они абсолютно одни в этом жутковато-стерильном лабиринте одинаковых домов и что из него нет выхода. Вскоре их одиночество будет прервано появлением у дверей коробки с младенцем, который похож на человека лишь внешне...

Качество: BDRip 1080p
Формат: MKV

Видео: MPEG-4 AVC, 1920x804, 16.6 Mbit/s, 23.976 fps
Аудио #01: 48 kHz, AC3, 5.1, 384 Kbps | iTunes | RUS |
Аудио #02: 48 kHz, AC3, 5.1, 448 Kbps | HDRezka Studio | RUS |
Аудио #03: 48 kHz, AC3, 5.1, 640 Kbps | Оригинал | ENG |
скриншот  скриншот  скриншот  скриншот  скриншот  

General
Unique ID : 285886692712206065997629236936313188160 (0xD713C63341E9CE7615D9FFCF2194AF40)
Complete name : D:Video111Vivarium.2019.BDRip.1080p.seleZen.mkv
Format : Matroska
Format version : Version 4
File size : 12.4 GiB
Duration : 1 h 38 min
Overall bit rate : 18.1 Mb/s
Movie name : Vivarium 2019 from селезень
Encoded date : UTC 2020-09-16 18:18:16
Writing application : mkvmerge v40.0.0 ('Old Town Road + Pony') 64-bit
Writing library : libebml v1.3.9 + libmatroska v1.5.2
Cover : Yes
Attachments : cover.jpg

Video
ID : 1
Format : AVC
Format/Info : Advanced Video Codec
Format profile : High@L4.1
Format settings : CABAC / 5 Ref Frames
Format settings, CABAC : Yes
Format settings, Reference : 5 frames
Codec ID : V_MPEG4/ISO/AVC
Duration : 1 h 38 min
Bit rate : 16.6 Mb/s
Width : 1 920 pixels
Height : 804 pixels
Display aspect ratio : 2.40:1
Frame rate mode : Constant
Frame rate : 23.976 (24000/1001) FPS
Color space : YUV
Chroma subsampling : 4:2:0
Bit depth : 8 bits
Scan type : Progressive
Bits/(Pixel*Frame) : 0.448
Stream size : 11.4 GiB (92%)
Title : Gyroscope
Writing library : x264 core 158 r2984+49 6932f4a t_mod_New [0-bit@all X86_64]
Encoding settings : cabac=1 / ref=5 / deblock=1:-3:-3 / analyse=0x3:0x113 / me=umh / subme=10 / psy=1 / fade_compensate=0.00 / psy_rd=1.00:0.00 / mixed_ref=1 / me_range=32 / chroma_me=1 / trellis=2 / 8x8dct=1 / cqm=0 / deadzone=21,11 / fast_pskip=0 / chroma_qp_offset=-2 / threads=9 / lookahead_threads=2 / sliced_threads=0 / nr=0 / decimate=0 / interlaced=0 / bluray_compat=0 / constrained_intra=0 / fgo=0 / bframes=16 / b_pyramid=2 / b_adapt=2 / b_bias=0 / direct=3 / weightb=1 / open_gop=0 / weightp=2 / keyint=250 / keyint_min=24 / scenecut=40 / intra_refresh=0 / rc_lookahead=75 / rc=crf / mbtree=0 / crf=17.0000 / qcomp=0.60 / qpmin=0:0:0 / qpmax=69:69:69 / qpstep=4 / vbv_maxrate=62500 / vbv_bufsize=78125 / crf_max=0.0 / nal_hrd=none / filler=0 / ip_ratio=1.40 / pb_ratio=1.30 / aq=3:0.85 / aq-sensitivity=10.00 / aq-factor=1.00:1.00:1.00 / aq2=0 / aq3=0 / zones=33,100,crf=13/388,513,crf=13/1724,1806,crf=13/2918,3230,crf=13/57950,59390,crf=13/32204,32376,crf=14/74104,74270,crf=14/106289,106515,crf=14
Language : English
Default : Yes
Forced : No

Audio #1
ID : 2
Format : AC-3
Format/Info : Audio Coding 3
Commercial name : Dolby Digital
Codec ID : A_AC3
Duration : 1 h 38 min
Bit rate mode : Constant
Bit rate : 384 kb/s
Channel(s) : 6 channels
Channel layout : L R C LFE Ls Rs
Sampling rate : 48.0 kHz
Frame rate : 31.250 FPS (1536 SPF)
Compression mode : Lossy
Stream size : 270 MiB (2%)
Title : Dub [iTunes]
Language : Russian
Service kind : Complete Main
Default : Yes
Forced : Yes

Audio #2
ID : 3
Format : AC-3
Format/Info : Audio Coding 3
Commercial name : Dolby Digital
Codec ID : A_AC3
Duration : 1 h 38 min
Bit rate mode : Constant
Bit rate : 448 kb/s
Channel(s) : 6 channels
Channel layout : L R C LFE Ls Rs
Sampling rate : 48.0 kHz
Frame rate : 31.250 FPS (1536 SPF)
Compression mode : Lossy
Stream size : 316 MiB (2%)
Title : MVO [HDRezka Studio]
Language : Russian
Service kind : Complete Main
Default : No
Forced : No

Audio #3
ID : 4
Format : AC-3
Format/Info : Audio Coding 3
Commercial name : Dolby Digital
Codec ID : A_AC3
Duration : 1 h 38 min
Bit rate mode : Constant
Bit rate : 640 kb/s
Channel(s) : 6 channels
Channel layout : L R C LFE Ls Rs
Sampling rate : 48.0 kHz
Frame rate : 31.250 FPS (1536 SPF)
Compression mode : Lossy
Stream size : 452 MiB (4%)
Title : Original
Language : English
Service kind : Complete Main
Default : No
Forced : No

Text #1
ID : 5
Format : UTF-8
Codec ID : S_TEXT/UTF8
Codec ID/Info : UTF-8 Plain Text
Duration : 1 h 24 min
Bit rate : 1 b/s
Count of elements : 19
Stream size : 923 Bytes (0%)
Title : Forced [For HDRezka Studio]
Language : Russian
Default : No
Forced : No

Text #2
ID : 6
Format : UTF-8
Codec ID : S_TEXT/UTF8
Codec ID/Info : UTF-8 Plain Text
Duration : 1 h 27 min
Bit rate : 34 b/s
Count of elements : 603
Stream size : 22.4 KiB (0%)
Title : Full [FOCS]
Language : Russian
Default : No
Forced : No

Text #3
ID : 7
Format : UTF-8
Codec ID : S_TEXT/UTF8
Codec ID/Info : UTF-8 Plain Text
Duration : 1 h 27 min
Bit rate : 37 b/s
Count of elements : 612
Stream size : 24.2 KiB (0%)
Title : Full [MENINSUB]
Language : Russian
Default : No
Forced : No

Text #4
ID : 8
Format : UTF-8
Codec ID : S_TEXT/UTF8
Codec ID/Info : UTF-8 Plain Text
Duration : 1 h 33 min
Bit rate : 26 b/s
Count of elements : 637
Stream size : 17.8 KiB (0%)
Title : Full
Language : English
Default : No
Forced : No

Text #5
ID : 9
Format : UTF-8
Codec ID : S_TEXT/UTF8
Codec ID/Info : UTF-8 Plain Text
Duration : 1 h 35 min
Bit rate : 32 b/s
Count of elements : 835
Stream size : 22.4 KiB (0%)
Title : SDH
Language : English
Default : No
Forced : No

Menu
00:00:00.000 : :Chapter 01
00:05:52.185 : :Chapter 02
00:12:26.871 : :Chapter 03
00:17:47.525 : :Chapter 04
00:22:23.217 : :Chapter 05
00:27:06.250 : :Chapter 06
00:35:45.977 : :Chapter 07
00:41:56.055 : :Chapter 08
00:46:25.199 : :Chapter 09
00:51:30.796 : :Chapter 10
00:54:06.034 : :Chapter 11
01:03:43.069 : :Chapter 12
01:12:21.587 : :Chapter 13
01:19:14.333 : :Chapter 14
01:25:33.295 : :Chapter 15
01:29:44.629 : :Chapter 16

pb.wtf



Скачать Вивариум через торрент https://a.radikal.ru/a36/2009/1a/afc076a04666.jpg Скачать фильм Вивариум через торрент бесплантно в хорошем качестве Описание: В поисках идеального дома молодая пара знакомится со странным агентом по недвижимости. Он привозит их в новый поселок в ... 10 10 12
Торрент: Зарегистрирован [2020-09-16 18:32] · скачан: 178 раз
Статус: √ проверено
Размер: 12.44 GB
Как cкачать? Как скачать Вивариум через торрент | qTorrent

% Раздел Тема Автор DL S | L
Фильмы 2019-2020 [DVDrip, WEB-DLRip, HDrip] (DUB, MVO) [ 1.42 GB ] Вивариум / Vivarium [2019 BDRip] - Twi7ter Скачать
183 | 8
Фильмы 2019-2020 [DVDrip, WEB-DLRip, HDrip] (DUB, MVO) [ 745 MB ] Вивариум / Vivarium [2019 HDRip] bober100 Скачать
6 | 0
Фильмы 2019-2020 [DVDrip, WEB-DLRip, HDrip] (DUB, MVO) [ 2.31 GB ] Вивариум / Vivarium [2019 BDRip-AVC] MVO [HDrezka Studio] AVO [BadBajo] - ExKinoRay Enigma2010 Скачать
56 | 4
Фильмы 2019-2020 [DVDrip, WEB-DLRip, HDrip] (DUB, MVO) [ 1.46 GB ] Вивариум / Vivarium [2019 BDRip] DUB [ ] bober100 Скачать
19 | 0
Фильмы [HD 720p, 1080p] (Хороший звук DUB, MVO) [ 6.47 GB ] Вивариум / Vivarium [2019 BDRip 720p] +MVO [HDRezka Studio] bober100 Скачать
13 | 0
Фильмы (Blu-ray, BD-Remux, HDDVD) [ 26.81 GB ] Вивариум / Vivarium [2019 BD Remux 1080p] +MVO [HDRezka Studio] bober100 Скачать
2 | 0
Фильмы 2019-2020 [DVDrip, WEB-DLRip, HDrip] (DUB, MVO) [ 1.46 GB ] Вивариум / Vivarium [2019 WEB-DLRip] MVO [HDrezka Studio] bober100 Скачать
10 | 0


Последний раз редактировалось: bober100 (2020-09-16 18:32), всего редактировалось 1 раз

28-11-2019 20:33  

Отключить всю рекламу на сайте

17-09-2020 03:14 Вивариум Скачать торрент  

Айзенберг во всех фильмах выглядит и одевается одинаково...странно, а что так можно было?pb.wtf



17-09-2020 18:34 Вивариум Скачать торрент  

посмотрел. Бредятина редкостная, причем от начала до конца. На любителя, но как по мне очень скучно и концовка вообще убила. Просто БРЕД сивой кобылы.pb.wtf



    Дорогой пользователь! Огромная просьба, поблагодарите релизера, оцените раздачу и оставьте свои комментарий, если Вы скачали Вивариум через торрент бесплатно! Внесите свою лепту в развитие PiratBit!
    Комментировать посты могут только пользователи прошедшие не сложную регистрацию
    Показать сообщения:    

    Вивариум через торрент
    Скачать бесплатно Вивариум
    Вивариум скачать торрент
    Вивариум смотреть онлайн
    Cкачать фильм Вивариум бесплатно
    Вивариум скачать торрент в хорошем качестве
    Вивариум смотреть онлайн бесплатно в хорошем качестве


    Вы не можете начинать темы
    Вы не можете отвечать на сообщения
    Вы не можете редактировать свои сообщения
    Вы не можете удалять свои сообщения
    Вы не можете голосовать в опросах
    Вы не можете прикреплять файлы к сообщениям
    Вы можете скачивать файлы