2 сезон

iTunes

MVO

1

2 сезон

iTunes

iTunes

1 сезон

RePack

30

Новинка

ВАЖНО

ИГРА 18+

pack

RePack

MK11
pack

Легкие деньги

RePack

jed

RePack

fifa19

RePack

RDR2

RePack

NEED FOR SPEED™ PAYBACK

4 сезон

9 сезон

Бесстыжие 9 сезон

Все сериалы

все сериалы на PB.wtf

RePack

FAR CRY 5

Anonymous, добрый вечер, мы не успеваем собрать деньги на оплату серверов за декабрь и январь, помогите нам пожалуйста в это трудное время. В качестве благодарности мы отключим Вам всю рекламу на сайте (укажите свой ник в строку Ваше имя)!

×
  
Magnet ссылка

База «Клейтон» / Basic (Джон МакТирнан) [2003 г., боевик, триллер, драма, криминал, детектив, ..., BDRip - HEVC 1080p 10 bit / 60 FPS, Дубляж] pb.wtf

База «Клейтон» через торрент pb.wtf

Размер: 2.88 GB | Добавлен: 9 мес. назад | Торрент скачан:60 раз
Скачать  

28-03-2020 17:19 База «Клейтон» Скачать торрент  

База «Клейтон» / Basic
Год выпуска: 2003
Страна: Германия, США
Жанр: боевик, триллер, драма, криминал, детектив, ...
Продолжительность: 98 мин. / 01:38
Перевод: Дубляж
Тип релиза: Пиратка
Субтитры: Русские

Режиссер: Джон МакТирнан

Бюджет: $50 000 000
Премьера в мире: 28 марта 2003, ...

rating

В ролях: Джон Траволта
Сэмюэл Л. Джексон
Конни Нильсен
Тим Дейли
Джованни Рибизи
Брайан Ван Холт
Тэй Диггз
Дэш Майок
Кристиан де ла Фуэнте
Роселин Санчес

Описание: Форт «Клейтон» — последняя американская военная база на Панамском канале. Во время секретной тренировочной миссии ураган настигает в джунглях группу спецназовцев и их легендарного инструктора Нэйтана Веста.

Противоречивые показания двух вернувшихся на базу солдат ещё больше запутывают дело. Для расследования обстоятельств мистического исчезновения отряда приглашают агента отдела по борьбе с наркотиками Харди. Те, кто уцелел, не могут объяснить — в наркотиках ли дело… Или в чем-то другом. Все лгут…

Качество: BDRip 1080p / 60 FPS
Формат: MKV
Видео кодек: H.265
Аудио кодек: AC3
Видео: V_MPEGH/ISO/HEVC;1920x800 (2.40:1);4002 Kbps;59,940 fps;0,043 bpp
Аудио#1: русский;AC3;192 Kbps;CBR;2 ch

Релиз от: DD2D3
скриншот   скриншот   скриншот  скриншот  

General
Unique ID : 171763384758393177590896112564246937552 (0x81386CB2F3050BCBB7CC9C7CECCBFFD0)
Complete name : D:\База «Клейтон» - Basic (2003) BDRip - HEVC 1080p 10 bit 60 FPS.mkv
Format : Matroska
Format version : Version 4
File size : 2.88 GiB
Duration : 1 h 38 min
Overall bit rate : 4 200 kb/s
Movie name : Rip by from DD2D3
Encoded date : UTC 2020-03-28 15:44:19
Writing application : mkvmerge v10.0.0 ('To Drown In You') 32bit
Writing library : libebml v1.3.4 + libmatroska v1.4.5
Attachments : poster

Video
ID : 1
Format : HEVC
Format/Info : High Efficiency Video Coding
Format profile : Main 10@L4.1@Main
Codec ID : V_MPEGH/ISO/HEVC
Duration : 1 h 38 min
Bit rate : 4 002 kb/s
Width : 1 920 pixels
Height : 800 pixels
Display aspect ratio : 2.40:1
Frame rate mode : Constant
Frame rate : 59.940 (60000/1001) FPS
Color space : YUV
Chroma subsampling : 4:2:0
Bit depth : 10 bits
Bits/(Pixel*Frame) : 0.043
Stream size : 2.74 GiB (95%)
Writing library : x265 2.3+33-0b7d54dbb71a87a0:[Windows][MSVC 1800][64 bit] 10bit: KG7x [x265.ru]
Encoding settings : cpuid=1173503 / frame-threads=2 / numa-pools=4 / wpp / no-pmode / no-pme / no-psnr / no-ssim / log-level=2 / input-csp=1 / input-res=1920x800 / interlace=0 / total-frames=353061 / level-idc=41 / high-tier=1 / uhd-bd=0 / ref=3 / no-allow-non-conformance / no-repeat-headers / annexb / no-aud / no-hrd / info / hash=0 / no-temporal-layers / open-gop / min-keyint=25 / keyint=250 / bframes=4 / b-adapt=2 / b-pyramid / bframe-bias=0 / rc-lookahead=20 / lookahead-slices=5 / scenecut=40 / no-intra-refresh / ctu=64 / min-cu-size=8 / no-rect / no-amp / max-tu-size=32 / tu-inter-depth=1 / tu-intra-depth=1 / limit-tu=0 / rdoq-level=0 / dynamic-rd=0.00 / no-ssim-rd / signhide / no-tskip / nr-intra=0 / nr-inter=0 / no-constrained-intra / strong-intra-smoothing / max-merge=2 / limit-refs=3 / no-limit-modes / me=1 / subme=2 / merange=57 / temporal-mvp / weightp / no-weightb / no-analyze-src-pics / deblock=0:0 / no-sao / no-sao-non-deblock / rd=3 / no-early-skip / no-rskip / no-fast-intra / no-tskip-fast / no-cu-lossless / no-b-intra / rdpenalty=0 / psy-rd=4.00 / psy-rdoq=0.00 / no-rd-refine / analysis-mode=0 / no-lossless / cbqpoffs=0 / crqpoffs=0 / rc=abr / bitrate=4000 / qcomp=0.60 / qpstep=1 / stats-write=0 / stats-read=2 / cplxblur=20.0 / qblur=0.5 / ipratio=1.10 / pbratio=1.00 / aq-mode=0 / aq-strength=0.00 / no-cutree / zone-count=0 / no-strict-cbr / qg-size=64 / rc-grain / qpmax=69 / qpmin=0 / sar=1 / overscan=0 / videoformat=5 / range=0 / colorprim=2 / transfer=2 / colormatrix=2 / chromaloc=0 / display-window=0 / max-cll=0,0 / min-luma=0 / max-luma=1023 / log2-max-poc-lsb=8 / vui-timing-info / vui-hrd-info / slices=1 / opt-qp-pps / opt-ref-list-length-pps / no-multi-pass-opt-rps / scenecut-bias=0.05 / no-opt-cu-delta-qp / no-aq-motion / no-hdr / no-hdr-opt / refine-level=5 / no-limit-sao
Default : Yes
Forced : No

Audio
ID : 2
Format : AC-3
Format/Info : Audio Coding 3
Commercial name : Dolby Digital
Codec ID : A_AC3
Duration : 1 h 38 min
Bit rate mode : Constant
Bit rate : 192 kb/s
Channel(s) : 2 channels
Channel layout : L R
Sampling rate : 48.0 kHz
Frame rate : 31.250 FPS (1536 SPF)
Compression mode : Lossy
Stream size : 135 MiB (5%)
Title : DUB
Language : Russian
Service kind : Complete Main
Default : No
Forced : No

Text
ID : 3
Format : UTF-8
Codec ID : S_TEXT/UTF8
Codec ID/Info : UTF-8 Plain Text
Duration : 1 h 33 min
Bit rate : 114 b/s
Count of elements : 1098
Stream size : 78.3 KiB (0%)
Language : Russian
Default : Yes
Forced : No

Menu
00:00:00.000 : en:1.Missing
00:08:44.941 : en:2.Ray Dunbar
00:18:42.746 : en:3.Green Hell
00:27:16.801 : en:4.Levi Kendall
00:37:45.888 : en:5.Gunfight
00:44:50.437 : en:6.The Drug Business
00:54:50.078 : en:7.Drug Supplier
01:01:04.369 : en:8.Confession
01:06:34.156 : en:9."8"
01:14:50.652 : en:10.Soldier Pike
01:24:17.886 : en:11.Head
01:34:08.142 : en:End Credits

pb.wtf



Скачать База «Клейтон» через торрент https://funkyimg.com/i/33sLY.jpg Скачать фильм База «Клейтон» через торрент бесплантно в хорошем качестве Описание: Форт «Клейтон» — последняя американская военная база на Панамском канале. Во время секретной тренировочной миссии ураган ... 9 10 5
Торрент: Зарегистрирован [2020-03-28 17:19] · скачан: 60 раз
Статус: √ проверено
Размер: 2.88 GB
Как cкачать? Как скачать База «Клейтон» через торрент | UTorrent

% Раздел Тема Автор DL S | L
Фильмы [HD 720p, 1080p] (Хороший звук DUB, MVO) [ 11.37 GB ] База «Клейтон» / Basic [2003 BDRip 1080p by msltel] DUB 3 x MVO 2 x AVO msltel Скачать
1 | 0
Фильмы [HD 720p, 1080p] (Хороший звук DUB, MVO) [ 4.69 GB ] База «Клейтон» / Basic [2003 BDRip 720p by msltel] DUB 3 x MVO 2 x AVO msltel Скачать
1 | 0
Фильмы 2001-2005 [ 3.41 GB ] База «Клейтон» / Basic [2003 BDRip AVC by msltel] DUB 3 x MVO 2 x AVO msltel Скачать
1 | 0
Фильмы 2001-2005 [ 2.18 GB ] База "Клейтон" / Basic [2003 BDRip] Dipe Скачать
1 | 0

28-11-2019 20:33  

Отключить всю рекламу на сайте

    Дорогой пользователь! Огромная просьба, поблагодарите релизера, оцените раздачу и оставьте свои комментарий, если Вы скачали База «Клейтон» через торрент бесплатно! Внесите свою лепту в развитие PiratBit!
    Комментировать посты могут только пользователи прошедшие не сложную регистрацию
    Показать сообщения:    

    База «Клейтон» через торрент
    Скачать бесплатно База «Клейтон»
    База «Клейтон» скачать торрент
    База «Клейтон» смотреть онлайн
    Cкачать фильм База «Клейтон» бесплатно
    База «Клейтон» скачать торрент в хорошем качестве
    База «Клейтон» смотреть онлайн бесплатно в хорошем качестве


    Вы не можете начинать темы
    Вы не можете отвечать на сообщения
    Вы не можете редактировать свои сообщения
    Вы не можете удалять свои сообщения
    Вы не можете голосовать в опросах
    Вы не можете прикреплять файлы к сообщениям
    Вы можете скачивать файлы