Ссылка на приватное зеркало нашего сайта всего за 1$. Внимание количество ограничено!!!

2 сезон

iTunes

1 сезон

1

2 сезон

2 сезон

iTunes

1 сезон

RePack

30

Новинка

ВАЖНО

ИГРА 18+

pack

RePack

MK11
pack

Забери бонус

RePack

jed

!!Акция!!

Alien_Rage

RePack

fifa19

RePack

Assassins Creed: Odyssey

RePack

NEED FOR SPEED™ PAYBACK

4 сезон

9 сезон

Бесстыжие 9 сезон

Все сериалы

все сериалы на PB.wtf

RePack

FAR CRY 5
  

Прогулка по Риму / Una gita a Roma (Карин Пройа) [2017, приключения, семейный, WEB-DL 1080p] MVO [Пилот Кино] pb.wtf

Прогулка по Риму через торрент pb.wtf

Размер: 4.14 GB | Добавлен: 8 мес. назад | Торрент скачан:32 раза
Скачать  

29-03-2020 02:49 Прогулка по Риму Скачать торрент  

Прогулка по Риму | Una gita a Roma
Год выпуска: 2017
Страна: Италия
Жанр: приключения, семейный
Продолжительность: 01:47:56
Перевод: Профессиональный (многоголосый) | Пилот Кино
Субтитры: отсутствуют

Режиссер: Карин Пройа

rating

В ролях: Стефано Амброджи, Фабрицио Аполлони, Лучия Батасса, Пино Борселли, Сильвана Бози, Раффаэль Буранелли, Теа Буранелли, Клаудия Кардинале, Франческа Кардинале, Кьяра Конти, Карло Лука Де Руджиери, Пьетро Де Силва, Джакомо Фадда, Массимилиано Фратески, Филипп Леруа, Джованни Ломбардо Радиче

Описание: Франческо исполнилось 9 лет, и семья подарила ему билеты в Рим, чтобы увидеть знаменитую Сикстинскую капеллу. Настал долгожданный день поездки, но непредвиденные проблемы заставляют вернуться из Рима раньше. Франческо не устраивает такой ход вещей, и он решает сбежать от мамы и самостоятельно добраться до Ватикана… Младшая сестра Мария следует за ним, и перед детьми открывается удивительная, полная волшебства и тайн вселенная Вечного города.

Качество: WEB-DL 1080p
Формат: MKV

Видео: MPEG-4 AVC, 1920x804 (2.40:1), 24.000 fps, 5120 kbps, 0.138 bit/pixel
Аудио: русский, AC3 5.1, 48 kHz, 384 kbps
скриншот  скриншот  скриншот  скриншот  скриншот  

Общее
Уникальный идентификатор : 253894359511756797846252812269550969857 (0xBF02466466359DD5A7D6DCB3020A2401)
Полное имя : Una.Gita.A.Roma.2017.WEB-DL.1080p.mkv
Формат : Matroska
Версия формата : Version 4
Размер файла : 4,14 Гбайт
Продолжительность : 1 ч. 47 м.
Общий поток : 5493 Кбит/сек
Дата кодирования : UTC 2020-03-17 10:37:52
Программа кодирования : mkvmerge v7.9.0 ('Birds') 64bit
Библиотека кодирования : libebml v1.3.1 + libmatroska v1.4.2

Видео
Идентификатор : 1
Формат : AVC
Формат/Информация : Advanced Video Codec
Профиль формата : High@L4
Настройки формата : CABAC / 4 Ref Frames
Параметр CABAC формата : Да
Параметр RefFrames формата : 4 кадра
Идентификатор кодека : V_MPEG4/ISO/AVC
Продолжительность : 1 ч. 47 м.
Битрейт : 5120 Кбит/сек
Ширина : 1920 пикселей
Высота : 804 пикселя
Соотношение сторон : 2,40:1
Режим частоты кадров : Постоянный
Частота кадров : 24,000 кадра/сек
Цветовое пространство : YUV
Субдискретизация насыщенности : 4:2:0
Битовая глубина : 8 бит
Тип развёртки : Прогрессивная
Бит/(Пиксели*Кадры) : 0.138
Размер потока : 3,77 Гбайт (91%)
Библиотека кодирования : x264 core 148
Настройки программы : cabac=1 / ref=3 / deblock=1:0:0 / analyse=0x3:0x113 / me=hex / subme=7 / psy=1 / psy_rd=1.00:0.00 / mixed_ref=1 / me_range=16 / chroma_me=1 / trellis=1 / 8x8dct=1 / cqm=0 / deadzone=21,11 / fast_pskip=1 / chroma_qp_offset=-2 / threads=25 / lookahead_threads=4 / sliced_threads=0 / nr=0 / decimate=1 / interlaced=0 / bluray_compat=0 / constrained_intra=0 / bframes=6 / b_pyramid=2 / b_adapt=1 / b_bias=0 / direct=1 / weightb=1 / open_gop=0 / weightp=2 / keyint=48 / keyint_min=25 / scenecut=0 / intra_refresh=0 / rc_lookahead=40 / rc=2pass / mbtree=1 / bitrate=5120 / ratetol=1.0 / qcomp=0.60 / qpmin=0 / qpmax=69 / qpstep=4 / cplxblur=20.0 / qblur=0.5 / vbv_maxrate=7680 / vbv_bufsize=20480 / nal_hrd=none / filler=0 / ip_ratio=1.40 / aq=1:1.00
Default : Да
Forced : Нет

Аудио
Идентификатор : 2
Формат : AC-3
Формат/Информация : Audio Coding 3
Коммерческое название : Dolby Digital
Идентификатор кодека : A_AC3
Продолжительность : 1 ч. 47 м.
Вид битрейта : Постоянный
Битрейт : 384 Кбит/сек
Каналы : 6 каналов
ChannelLayout : L R C LFE Ls Rs
Частота : 48,0 КГц
Частота кадров : 31,250 кадров/сек (1536 SPF)
Битовая глубина : 16 бит
Метод сжатия : С потерями
Размер потока : 296 Мбайт (7%)
Язык : Russian
ServiceKind : Complete Main
Default : Да
Forced : Нет

pb.wtf



Скачать Прогулка по Риму через торрент https://img10.lostpic.net/2020/03/25/5c7506f124bd7db525fdc4bfb938ed0e.jpg Скачать фильм Прогулка по Риму через торрент бесплантно в хорошем качестве Описание: Франческо исполнилось 9 лет, и семья подарила ему билеты в Рим, чтобы увидеть знаменитую Сикстинскую капеллу. Настал долгожданный ... 10 10 4
Торрент: Зарегистрирован [2020-03-29 02:49] · скачан: 32 раз
Статус: √ проверено
Размер: 4.14 GB
Как cкачать? Как скачать Прогулка по Риму через торрент | qTorrent

28-11-2019 20:33  

Отключить всю рекламу на сайте

    Дорогой пользователь! Огромная просьба, поблагодарите релизера, оцените раздачу и оставьте свои комментарий, если Вы скачали Прогулка по Риму через торрент бесплатно! Внесите свою лепту в развитие PiratBit!
    Комментировать посты могут только пользователи прошедшие не сложную регистрацию
    Показать сообщения:    

    Прогулка по Риму через торрент
    Скачать бесплатно Прогулка по Риму
    Прогулка по Риму скачать торрент
    Прогулка по Риму смотреть онлайн
    Cкачать фильм Прогулка по Риму бесплатно
    Прогулка по Риму скачать торрент в хорошем качестве
    Прогулка по Риму смотреть онлайн бесплатно в хорошем качестве


    Вы не можете начинать темы
    Вы не можете отвечать на сообщения
    Вы не можете редактировать свои сообщения
    Вы не можете удалять свои сообщения
    Вы не можете голосовать в опросах
    Вы не можете прикреплять файлы к сообщениям
    Вы можете скачивать файлы