Ссылка на приватное зеркало нашего сайта всего за 1$. Внимание количество ограничено!!!

2 сезон

iTunes

1 сезон

1

2 сезон

2 сезон

iTunes

1 сезон

RePack

30

Ultimate

ВАЖНО

ИГРА 18+

pack

RePack

MK11
pack

Забери бонус

RePack

jed

!!Акция!!

Alien_Rage

RePack

fifa19

RePack

Assassins Creed: Odyssey

RePack

NEED FOR SPEED™ PAYBACK

4 сезон

9 сезон

Бесстыжие 9 сезон

Все сериалы

все сериалы на PB.wtf

RePack

FAR CRY 5
  

Они / Haunt (Скотт Бек, Брайан Вудс) [2019, Ужасы, триллер, BD Remux 1080p] DUB [iTunes] pb.wtf

Они через торрент pb.wtf

Размер: 23.62 GB | Добавлен: 7 мес. назад | Торрент скачан:17 раз
Скачать  

29-03-2020 03:21 Они Скачать торрент  

Они | Haunt
Год выпуска: 2019
Страна: США
Студия: Broken Road Productions, Nickel City Pictures, Sierra / Affinity
Жанр: Ужасы, триллер
Продолжительность: 01:32:10
Перевод: Дублированный | iTunes
Субтитры: Английские

Режиссер: Скотт Бек, Брайан Вудс

rating

В ролях: Кэти Стивенс, Уилл Бриттейн, Лорин Алиса МакКлейн, Эндрю Колдуэлл, Шази Раджа, Шулер Хелфорд, Филлип Джонсон Ричардсон, Чейни Морроу, Джастин Марксен, Терри Партыка

Описание: На Хэллоуин в поисках острых ощущений группа студентов отправляется за город на аттракцион «Комнаты страха», который обещает воплотить кошмары из самых жутких фильмов ужасов. Вскоре друзья понимают, что это вовсе не место для игр, что под масками клоунов - не люди, а существа из другого мира, а сами они теперь - настоящие герои хоррора и должны разгадать природу зла, чтобы выжить.

Качество: BD Remux 1080p
Формат: MKV

Видео: MPEG-4 AVC, 1920x1080, 33.0 Mbit/s, 24.000 fps
Аудио#1: 48 kHz, AC3, 5.1, 384 Kbps | iTunes | RUS |
Аудио#2: 48 kHz, DTS-HD MA, 5.1, 3345 Kbps | Оригинал | ENG |
скриншот  скриншот  скриншот  скриншот  скриншот  

General
Unique ID : 90724172044993546881316294586142860740 (0x4440D707C1E80814B5D7420854D0A5C4)
Complete name : E:Video111Haunt.2019.BDREMUX.1080p.seleZen.mkv
Format : Matroska
Format version : Version 4
File size : 23.6 GiB
Duration : 1 h 32 min
Overall bit rate mode : Variable
Overall bit rate : 36.7 Mb/s
Movie name : Haunt 2019 from селезень
Encoded date : UTC 2020-03-28 12:35:25
Writing application : mkvmerge v40.0.0 ('Old Town Road + Pony') 64-bit
Writing library : libebml v1.3.9 + libmatroska v1.5.2

Video
ID : 1
Format : AVC
Format/Info : Advanced Video Codec
Format profile : High@L4.1
Format settings : CABAC / 3 Ref Frames
Format settings, CABAC : Yes
Format settings, Reference : 3 frames
Codec ID : V_MPEG4/ISO/AVC
Duration : 1 h 32 min
Bit rate mode : Variable
Bit rate : 33.0 Mb/s
Maximum bit rate : 35.0 Mb/s
Width : 1 920 pixels
Height : 1 080 pixels
Display aspect ratio : 16:9
Frame rate mode : Constant
Frame rate : 24.000 FPS
Color space : YUV
Chroma subsampling : 4:2:0
Bit depth : 8 bits
Scan type : Progressive
Bits/(Pixel*Frame) : 0.662
Stream size : 21.2 GiB (90%)
Language : English
Default : Yes
Forced : No

Audio #1
ID : 2
Format : AC-3
Format/Info : Audio Coding 3
Commercial name : Dolby Digital
Codec ID : A_AC3
Duration : 1 h 32 min
Bit rate mode : Constant
Bit rate : 384 kb/s
Channel(s) : 6 channels
Channel layout : L R C LFE Ls Rs
Sampling rate : 48.0 kHz
Frame rate : 31.250 FPS (1536 SPF)
Compression mode : Lossy
Stream size : 253 MiB (1%)
Title : iTunes
Language : Russian
Service kind : Complete Main
Default : Yes
Forced : Yes

Audio #2
ID : 3
Format : DTS XLL
Format/Info : Digital Theater Systems
Commercial name : DTS-HD Master Audio
Codec ID : A_DTS
Duration : 1 h 32 min
Bit rate mode : Variable
Bit rate : 3 345 kb/s
Channel(s) : 6 channels
Channel layout : C L R Ls Rs LFE
Sampling rate : 48.0 kHz
Frame rate : 93.750 FPS (512 SPF)
Bit depth : 24 bits
Compression mode : Lossless
Stream size : 2.15 GiB (9%)
Title : Original
Language : English
Default : No
Forced : No

Text
ID : 4
Format : UTF-8
Codec ID : S_TEXT/UTF8
Codec ID/Info : UTF-8 Plain Text
Duration : 1 h 31 min
Bit rate : 42 b/s
Count of elements : 1279
Stream size : 28.9 KiB (0%)
Title : SDH
Language : English
Default : No
Forced : No

Menu
00:00:00.000 : en:Глава 01
00:08:05.750 : en:Глава 02
00:16:49.333 : en:Глава 03
00:25:24.417 : en:Глава 04
00:33:27.417 : en:Глава 05
00:43:05.917 : en:Глава 06
00:50:57.292 : en:Глава 07
00:58:12.417 : en:Глава 08
01:06:10.000 : en:Глава 09
01:12:57.458 : en:Глава 10
01:19:09.958 : en:Глава 11
01:26:18.250 : en:Глава 12

pb.wtf



Скачать Они через торрент https://i111.fastpic.ru/big/2020/0329/57/7ba093dfdf7a19c67f210e6d49882557.jpg Скачать фильм Они через торрент бесплантно в хорошем качестве Описание: На Хэллоуин в поисках острых ощущений группа студентов отправляется за город на аттракцион «Комнаты страха», который обещает ... 10 10 4
Торрент: Зарегистрирован [2020-03-29 03:21] · скачан: 17 раз
Статус: √ проверено
Размер: 23.62 GB
Как cкачать? Как скачать Они через торрент | qTorrent

% Раздел Тема Автор DL S | L
Фильмы 2019-2020 [DVDrip, WEB-DLRip, HDrip] (DUB, MVO) [ 1.42 GB ] Они / Haunt [2019 BDRip] - Twi7ter Скачать
9 | 1
Фильмы 2019-2020 [DVDrip, WEB-DLRip, HDrip] (DUB, MVO) [ 705 MB ] Они / Haunt [2019 HDRip ""] coc900 Скачать
1 | 0
Фильмы [HD 720p, 1080p] (Хороший звук DUB, MVO) [ 4.64 GB ] Они / Haunt [2019 BDRip 720p] bober100 Скачать
1 | 0
Фильмы [HD 720p, 1080p] (Хороший звук DUB, MVO) [ 9.35 GB ] Они / Haunt [2019 BDRip 1080p] bober100 Скачать
1 | 0
Фильмы 2019-2020 [DVDrip, WEB-DLRip, HDrip] (DUB, MVO) [ 1.46 GB ] Они / Haunt [2019 BDRip] bober100 Скачать
2 | 0
Фильмы (WEB-DL 720p, 1080p) [ 5.98 GB ] Они / Haunt [2019 WEB-DL 1080p] bober100 Скачать
2 | 0
Фильмы 2010 [ 1.46 GB ] Поймать чтобы убить / Hunt to Kill [2010 HDRip ] markfiter Скачать
1 | 0

28-11-2019 20:33  

Отключить всю рекламу на сайте

    Дорогой пользователь! Огромная просьба, поблагодарите релизера, оцените раздачу и оставьте свои комментарий, если Вы скачали Они через торрент бесплатно! Внесите свою лепту в развитие PiratBit!
    Комментировать посты могут только пользователи прошедшие не сложную регистрацию
    Показать сообщения:    

    Они через торрент
    Скачать бесплатно Они
    Они скачать торрент
    Они смотреть онлайн
    Cкачать фильм Они бесплатно
    Они скачать торрент в хорошем качестве
    Они смотреть онлайн бесплатно в хорошем качестве


    Вы не можете начинать темы
    Вы не можете отвечать на сообщения
    Вы не можете редактировать свои сообщения
    Вы не можете удалять свои сообщения
    Вы не можете голосовать в опросах
    Вы не можете прикреплять файлы к сообщениям
    Вы можете скачивать файлы