2 сезон

iTunes

MVO

1

2 сезон

iTunes

iTunes

1 сезон

RePack

30

Ultimate

ВАЖНО

ИГРА 18+

pack

RePack

MK11
pack

Легкие деньги

RePack

jed

RePack

fifa19

RePack

RDR2

RePack

NEED FOR SPEED™ PAYBACK

4 сезон

9 сезон

Бесстыжие 9 сезон

Все сериалы

все сериалы на PB.wtf

RePack

FAR CRY 5

Anonymous, добрый вечер, мы не успеваем собрать деньги на оплату серверов за декабрь и январь, помогите нам пожалуйста в это трудное время. В качестве благодарности мы отключим Вам всю рекламу на сайте (укажите свой ник в строку Ваше имя)!

×
  
Magnet ссылка

Угоняя лошадей / Ut og stjæle hester / Pferde stehlen (Ханс Петтер Муланд) [2019, драма, детектив, BDRip 720p] MVO [iTunes] pb.wtf

Угоняя лошадей через торрент pb.wtf

Размер: 3.74 GB | Добавлен: 9 мес. назад | Торрент скачан:22 раза
Скачать  

29-03-2020 03:45 Угоняя лошадей Скачать торрент  

Угоняя лошадей | Ut og stjæle hester | Pferde stehlen
Год выпуска: 2019
Страна: Норвегия, Швеция, Дания
Студия: 4 1/2 Film, 4 1/2 Fiksjon, Helgeland Film
Жанр: драма, детектив
Продолжительность: 01:58:31
Перевод: Профессиональный многоголосый | iTunes
Субтитры: отсутствуют

Режиссер: Ханс Петтер Муланд

rating

В ролях: Стеллан Скарсгард, Тобиас Зантельман, Джон Рейнс, Бьёрн Флоберг, Даница Чурчич, Сьюр Ватне Бреан, Гард Б. Эйдсвольд, Пол Сверре Валхейм Хаген, Андерс Баасмо Кристиансен, Торбьорн Харр

Описание: Накануне прихода нового тысячелетия Тронд Сандер уезжает из Осло в деревню. Год подходит к концу, одиночество непреодолимо. И лишь призраки прошлого настигают Тронда с всё большей уверенностью. Но однажды Сандер встречает старого знакомого, который заставляет его вернуться воспоминаниями в юношество. Туда, где яркие краски лета и грациозные дикие лошади были декорациями первому страшному опыту познания чужой смерти. Туда, где радость переплеталась с предательством и разочарованием. Туда, откуда берут начало личные трагедии и самые счастливые моменты в жизни.

Качество: BDRip 720p
Формат: MKV

Видео: MPEG-4 AVC, 1280x536, 3500 Kbit/s, 25.000 fps
Аудио #01: 48 kHz, AC3, 5.1, 384 Kbps | iTunes | RUS |
Аудио #02: 48 kHz, AC3, 5.1, 640 Kbps | Оригинал | GER |
скриншот  скриншот  скриншот  скриншот  скриншот  

General
Unique ID : 30555918189535265675595957425344230528 (0x16FCDB148693FB401D02FBC6FE323480)
Complete name : E:Video111Ut.og.stjæle.hester.2019.BDRip.720p.seleZen.mkv
Format : Matroska
Format version : Version 4
File size : 3.74 GiB
Duration : 1 h 58 min
Overall bit rate : 4 523 kb/s
Movie name : Ut og stjæle hester 2019 from селезень
Encoded date : UTC 2020-03-28 13:23:24
Writing application : mkvmerge v40.0.0 ('Old Town Road + Pony') 64-bit
Writing library : libebml v1.3.9 + libmatroska v1.5.2

Video
ID : 1
Format : AVC
Format/Info : Advanced Video Codec
Format profile : High@L4.1
Format settings : CABAC / 12 Ref Frames
Format settings, CABAC : Yes
Format settings, Reference : 12 frames
Codec ID : V_MPEG4/ISO/AVC
Duration : 1 h 58 min
Bit rate : 3 500 kb/s
Width : 1 280 pixels
Height : 536 pixels
Display aspect ratio : 2.40:1
Frame rate mode : Constant
Frame rate : 25.000 FPS
Color space : YUV
Chroma subsampling : 4:2:0
Bit depth : 8 bits
Scan type : Progressive
Bits/(Pixel*Frame) : 0.204
Stream size : 2.90 GiB (77%)
Title : Encoded by seleZen
Writing library : x264 core 142 r2431+42 c69a006 tMod [8-bit@all X86_64]
Encoding settings : cabac=1 / ref=12 / deblock=1:-2:-2 / analyse=0x3:0x133 / me=umh / subme=10 / psy=1 / fade_compensate=0.00 / psy_rd=1.00:0.00 / mixed_ref=1 / me_range=32 / chroma_me=1 / trellis=2 / 8x8dct=1 / cqm=0 / deadzone=21,11 / fast_pskip=0 / chroma_qp_offset=-2 / threads=24 / lookahead_threads=4 / sliced_threads=0 / nr=0 / decimate=0 / interlaced=0 / bluray_compat=0 / constrained_intra=0 / fgo=0 / bframes=8 / b_pyramid=2 / b_adapt=2 / b_bias=0 / direct=3 / weightb=1 / open_gop=0 / weightp=2 / keyint=240 / keyint_min=24 / scenecut=40 / intra_refresh=0 / rc_lookahead=50 / rc=2pass / mbtree=0 / bitrate=3500 / ratetol=1.0 / qcomp=0.60 / qpmin=0:0:0 / qpmax=51:51:51 / qpstep=4 / cplxblur=20.0 / qblur=0.5 / vbv_maxrate=50000 / vbv_bufsize=62500 / nal_hrd=none / filler=0 / ip_ratio=1.40 / pb_ratio=1.30 / aq=3:0.80 / aq-sensitivity=10.00 / aq-factor=1.00:1.00:1.00 / aq2=0 / aq3=0
Language : English
Default : Yes
Forced : No

Audio #1
ID : 2
Format : AC-3
Format/Info : Audio Coding 3
Commercial name : Dolby Digital
Codec ID : A_AC3
Duration : 1 h 58 min
Bit rate mode : Constant
Bit rate : 384 kb/s
Channel(s) : 6 channels
Channel layout : L R C LFE Ls Rs
Sampling rate : 48.0 kHz
Frame rate : 31.250 FPS (1536 SPF)
Compression mode : Lossy
Stream size : 326 MiB (8%)
Title : iTunes
Language : Russian
Service kind : Complete Main
Default : Yes
Forced : Yes

Audio #2
ID : 3
Format : AC-3
Format/Info : Audio Coding 3
Commercial name : Dolby Digital
Codec ID : A_AC3
Duration : 1 h 58 min
Bit rate mode : Constant
Bit rate : 640 kb/s
Channel(s) : 6 channels
Channel layout : L R C LFE Ls Rs
Sampling rate : 48.0 kHz
Frame rate : 31.250 FPS (1536 SPF)
Compression mode : Lossy
Stream size : 543 MiB (14%)
Title : Original
Language : German
Service kind : Complete Main
Default : No
Forced : No

Menu
00:00:00.000 : de:Глава 01
00:09:52.040 : de:Глава 02
00:19:04.360 : de:Глава 03
00:26:51.440 : de:Глава 04
00:38:09.240 : de:Глава 05
00:53:42.360 : de:Глава 06
01:03:10.960 : de:Глава 07
01:10:57.480 : de:Глава 08
01:17:45.720 : de:Глава 09
01:30:40.960 : de:Глава 10
01:39:49.600 : de:Глава 11
01:53:04.000 : de:Глава 12

pb.wtf



Скачать Угоняя лошадей через торрент https://i111.fastpic.ru/big/2020/0327/9b/79cf3b522245c925763efcdfc845979b.jpg Скачать фильм Угоняя лошадей через торрент бесплантно в хорошем качестве Описание: Накануне прихода нового тысячелетия Тронд Сандер уезжает из Осло в деревню. Год подходит к концу, одиночество непреодолимо. И ... 10 10 2
Торрент: Зарегистрирован [2020-03-29 03:45] · скачан: 22 раз
Статус: √ проверено
Размер: 3.74 GB
Как cкачать? Как скачать Угоняя лошадей через торрент | UTorrent

% Раздел Тема Автор DL S | L
Фильмы 2019-2020 [DVDrip, WEB-DLRip, HDrip] (DUB, MVO) [ 2.13 GB ] Угоняя лошадей / Ut og stjæle hester / Pferde stehlen [2019 BDRip] MVO Twi7ter Скачать
2 | 1
Фильмы 2019-2020 [DVDrip, WEB-DLRip, HDrip] (DUB, MVO) [ 1.41 GB ] Угоняя лошадей / Ut og stjæle hester / Pferde stehlen [2019 BDRip] MVO Twi7ter Скачать
2 | 0
Фильмы [HD 720p, 1080p] (Хороший звук DUB, MVO) [ 7.29 GB ] Угоняя лошадей / Ut og stjæle hester / Pferde stehlen [2019 BDRip 1080p] MVO bober100 Скачать
1 | 0
Фильмы (Blu-ray, BD-Remux, HDDVD) [ 16.22 GB ] Угоняя лошадей / Ut og stjæle hester / Pferde stehlen [2019 BD Remux 1080i] MVO bober100 Скачать
1 | 0
Фильмы 2019-2020 [DVDrip, WEB-DLRip, HDrip] (DUB, MVO) [ 1.46 GB ] Угоняя лошадей / Ut og stjæle hester / Pferde stehlen [2019 BDRip] MVO bober100 Скачать
4 | 0
Фильмы (WEB-DL 720p, 1080p) [ 4.07 GB ] Угоняя лошадей / Ut og stjæle hester / Pferde stehlen [2019 WEB-DL 1080p] MVO bober100 Скачать
1 | 0

28-11-2019 20:33  

Отключить всю рекламу на сайте

    Дорогой пользователь! Огромная просьба, поблагодарите релизера, оцените раздачу и оставьте свои комментарий, если Вы скачали Угоняя лошадей через торрент бесплатно! Внесите свою лепту в развитие PiratBit!
    Комментировать посты могут только пользователи прошедшие не сложную регистрацию
    Показать сообщения:    

    Угоняя лошадей через торрент
    Скачать бесплатно Угоняя лошадей
    Угоняя лошадей скачать торрент
    Угоняя лошадей смотреть онлайн
    Cкачать фильм Угоняя лошадей бесплатно
    Угоняя лошадей скачать торрент в хорошем качестве
    Угоняя лошадей смотреть онлайн бесплатно в хорошем качестве


    Вы не можете начинать темы
    Вы не можете отвечать на сообщения
    Вы не можете редактировать свои сообщения
    Вы не можете удалять свои сообщения
    Вы не можете голосовать в опросах
    Вы не можете прикреплять файлы к сообщениям
    Вы можете скачивать файлы