Ссылка на приватное зеркало нашего сайта всего за 1$. Внимание количество ограничено!!!

2 сезон

iTunes

1 сезон

1

iTunes

iTunes

iTunes

1 сезон

RePack

30

ИГРА 18+

pack

ВАЖНО

!!Акция!!

Alien_RageХит недели

RePack

MK11
pack

Забери бонус

RePack

jed

!!Акция!!

Alien_Rage

RePack

fifa19

RePack

Assassins Creed: Odyssey

RePack

NEED FOR SPEED™ PAYBACK

4 сезон

9 сезон

Бесстыжие 9 сезон

Все сериалы

все сериалы на PB.wtf

RePack

FAR CRY 5
  

Виражи судьбы / Серии: 1-4 из 4 (Максим Мехеда) [2019, Мелодрама, HDTVRip 720p] pb.wtf

Виражи судьбы через торрент pb.wtf

Раздают: 1 [ 0 KB/s ]
Размер: 4.57 GB | Добавлен: 6 мес. назад | Торрент скачан:35 раз
Скачать  

29-03-2020 07:38 Виражи судьбы Скачать торрент  

Виражи судьбы
Год выпуска: 2019
Страна: Украина
Жанр: Мелодрама
Продолжительность: ~ 00:45:00
Субтитры: отсутствуют

Режиссер: Максим Мехеда



В ролях: Екатерина Астахова, Михаил Гаврилов (II), Игорь Петрусенко, Александр Кобзарь, Денис Мартынов, Елена Ларина (III)

Описание: Судьба Лизы Калининой казалась ровной и прямой, как дорога через степь, и такой же серой: детский дом, училище, раннее замужество. Но все изменилось в тот день, когда Лиза получила письмо от родной матери, из которого узнала - она дочь богатого бизнесмена Виктора Лозовского. Виктор и его жена Маргарита принимают Лизу с дочерью в семье, окружают заботой и теплом. Но счастье длится недолго…

Качество: HDTVRip 720p
Формат: MKV

Видео: 1280х720(16:9), 25 fps, AVC MPEG-4 (x264), High@L4.1 ~ 3500 kbps , 0.152 bit/pixel
Аудио: 48.0 kHz, AC3 Dolby Digital, 2/0 (L,R) ch, ~ 192 kbps
скриншот  скриншот  скриншот  скриншот  

Общее
Уникальный идентификатор : 183832584714565819169529060805033349982 (0x8A4CDE32FE28E810BA0C6C45E47C535E)
Полное имя : C:\Virazhi.sudby.2019.HDTVRip.(720p).ExKinoRay\Virazhi.sudby.E01.2019.HDTVRip.(720p).ExKinoRay.mkv
Формат : Matroska
Версия формата : Version 4
Размер файла : 1,15 Гбайт
Продолжительность : 44 м. 25 с.
Общий поток : 3693 Кбит/сек
Дата кодирования : UTC 2020-03-28 20:13:02
Программа кодирования : mkvmerge v6.9.1 ('Blue Panther') 64bit built on Apr 18 2014 18:23:38
Библиотека кодирования : libebml v1.3.0 + libmatroska v1.4.1

Видео
Идентификатор : 1
Формат : AVC
Формат/Информация : Advanced Video Codec
Профиль формата : High@L4.1
Настройки формата : CABAC / 9 Ref Frames
Параметр CABAC формата : Да
Параметр RefFrames формата : 9 кадров
Идентификатор кодека : V_MPEG4/ISO/AVC
Продолжительность : 44 м. 25 с.
Битрейт : 3500 Кбит/сек
Ширина : 1280 пикселей
Высота : 720 пикселей
Соотношение сторон : 16:9
Режим частоты кадров : Постоянный
Частота кадров : 25,000 кадров/сек
Цветовое пространство : YUV
Субдискретизация насыщенности : 4:2:0
Битовая глубина : 8 бит
Тип развёртки : Прогрессивная
Бит/(Пиксели*Кадры) : 0.152
Размер потока : 1,06 Гбайт (93%)
Библиотека кодирования : x264 core 146 r2538 121396c
Настройки программы : cabac=1 / ref=9 / deblock=1:-3:-3 / analyse=0x3:0x113 / me=umh / subme=11 / psy=1 / psy_rd=1.00:0.20 / mixed_ref=1 / me_range=32 / chroma_me=1 / trellis=2 / 8x8dct=1 / cqm=0 / deadzone=21,11 / fast_pskip=1 / chroma_qp_offset=-3 / threads=24 / lookahead_threads=10 / sliced_threads=0 / nr=0 / decimate=0 / interlaced=0 / bluray_compat=0 / constrained_intra=0 / bframes=10 / b_pyramid=2 / b_adapt=2 / b_bias=0 / direct=3 / weightb=1 / open_gop=0 / weightp=2 / keyint=250 / keyint_min=25 / scenecut=40 / intra_refresh=0 / rc_lookahead=60 / rc=2pass / mbtree=1 / bitrate=3500 / ratetol=1.0 / qcomp=0.60 / qpmin=0 / qpmax=69 / qpstep=4 / cplxblur=20.0 / qblur=0.5 / vbv_maxrate=14000 / vbv_bufsize=14000 / nal_hrd=none / filler=0 / ip_ratio=1.40 / aq=3:1.40
Default : Нет
Forced : Нет
Цветовой диапазон : Limited
Основные цвета : BT.709
Характеристики трансфера : BT.709
Коэффициенты матрицы : BT.709

Аудио
Идентификатор : 2
Формат : AC-3
Формат/Информация : Audio Coding 3
Коммерческое название : Dolby Digital
Идентификатор кодека : A_AC3
Продолжительность : 44 м. 25 с.
Вид битрейта : Постоянный
Битрейт : 192 Кбит/сек
Каналы : 2 канала
ChannelLayout : L R
Частота : 48,0 КГц
Частота кадров : 31,250 кадров/сек (1536 SPF)
Битовая глубина : 16 бит
Метод сжатия : С потерями
Размер потока : 61,0 Мбайт (5%)
Язык : Russian
ServiceKind/String : Complete Main
Default : Да
Forced : Да

pb.wtf



Скачать Виражи судьбы через торрент https://i86.fastpic.ru/big/2019/0929/bb/6e6b992b398ddbe303cfd18839b36dbb.jpg Скачать фильм Виражи судьбы через торрент бесплантно в хорошем качестве Описание: Судьба Лизы Калининой казалась ровной и прямой, как дорога через степь, и такой же серой: детский дом, училище, раннее ... 10 10 4
Торрент: Зарегистрирован [2020-03-29 07:38] · скачан: 35 раз
Статус: √ проверено
Размер: 4.57 GB
Как cкачать? Как скачать Виражи судьбы через торрент | qTorrent

% Раздел Тема Автор DL S | L
Наши сериалы [ 9.48 GB ] Виражи судьбы / Серии: 1-4 из 4 [2019 Мело HDTV 1080i] bober100 Скачать
1 | 0

28-11-2019 20:33  

Отключить всю рекламу на сайте

    Дорогой пользователь! Огромная просьба, поблагодарите релизера, оцените раздачу и оставьте свои комментарий, если Вы скачали Виражи судьбы через торрент бесплатно! Внесите свою лепту в развитие PiratBit!
    Комментировать посты могут только пользователи прошедшие не сложную регистрацию
    Показать сообщения:    

    Виражи судьбы через торрент
    Скачать бесплатно Виражи судьбы
    Виражи судьбы скачать торрент
    Виражи судьбы смотреть онлайн
    Cкачать фильм Виражи судьбы бесплатно
    Виражи судьбы скачать торрент в хорошем качестве
    Виражи судьбы смотреть онлайн бесплатно в хорошем качестве


    Вы не можете начинать темы
    Вы не можете отвечать на сообщения
    Вы не можете редактировать свои сообщения
    Вы не можете удалять свои сообщения
    Вы не можете голосовать в опросах
    Вы не можете прикреплять файлы к сообщениям
    Вы можете скачивать файлы