Ссылка на приватное зеркало нашего сайта всего за 1$. Внимание количество ограничено!!!

2 сезон

iTunes

1 сезон

1

2 сезон

2 сезон

iTunes

1 сезон

RePack

30

Новинка

ВАЖНО

ИГРА 18+

pack

RePack

MK11
pack

Забери бонус

RePack

jed

!!Акция!!

Alien_Rage

RePack

fifa19

RePack

Assassins Creed: Odyssey

RePack

NEED FOR SPEED™ PAYBACK

4 сезон

9 сезон

Бесстыжие 9 сезон

Все сериалы

все сериалы на PB.wtf

RePack

FAR CRY 5
  

Западня для дьявола / In the Trap (Алессио Лигуори) [2019, Ужасы, триллер, WEB-DL 720p] DUB [iTunes] pb.wtf

Западня для дьявола через торрент pb.wtf

Размер: 2.97 GB | Добавлен: 8 мес. назад | Торрент скачан:52 раза
Скачать  

29-03-2020 07:55 Западня для дьявола Скачать торрент  

Западня для дьявола | In the Trap
Год выпуска: 2019
Страна: Италия
Студия: Dreamworldmovies, Mad Rocket Entertainment
Жанр: Ужасы, триллер
Продолжительность: 01:33:27
Перевод: Дублированный | iTunes
Субтитры: отсутствуют

Режиссер: Алессио Лигуори

rating

В ролях: Джэми Пол, Дэвид Бэйли, Роберт Нэйрн, Соня Каллингфорд, Делена Кидд, Паола Бонтемпи, Мириам Галанти, Амелия Клэй, Джуд Форси, Лейла Гонтлетт

Описание: Страхи могут быть бессмысленными. Они способны портить жизнь тому, кто их испытывает. Но побороть страх не так просто, как может показаться... Филип оказывается заперт в своей квартире. Он стал заложником собственного страха и боится покинуть помещение, в котором на протяжении последних двух лет зловещая сила подвергает его мучительным пыткам.

Качество: WEB-DL 720p
Формат: MKV

Видео: MPEG-4 AVC, 4156 Кбит/с, 1280x536, 24.000 fps
Аудио: 48 kHz, AC3 Dolby Digital, 3/2 (L,C,R,l,r) + LFE ch, ~384 kbps
скриншот  скриншот  скриншот  скриншот  

Общее
Уникальный идентификатор : 4644707794890595643857780961117256723 (0x37E89C6543B6CE26D37F9BF3288BC13)
Полное имя : C:\3apadnya.Dl1a.D1vola.2019.D.WEB-DL.720p_YD51.RU.mkv
Формат : Matroska
Версия формата : Version 4
Размер файла : 2,97 Гбайт
Продолжительность : 1 ч. 33 м.
Общий поток : 4542 Кбит/сек
Дата кодирования : UTC 2020-03-27 20:53:51
Программа кодирования : mkvmerge v43.0.0 ('The Quartermaster') 64-bit
Библиотека кодирования : libebml v1.3.10 + libmatroska v1.5.2
Обложка : Yes
Attachments : cover.jpg

Видео
Идентификатор : 1
Формат : AVC
Формат/Информация : Advanced Video Codec
Профиль формата : Main@L3.1
Настройки формата : 2 Ref Frames
Параметр CABAC формата : Нет
Параметр RefFrames формата : 2 кадра
Идентификатор кодека : V_MPEG4/ISO/AVC
Продолжительность : 1 ч. 33 м.
Битрейт : 4156 Кбит/сек
Ширина : 1280 пикселей
Высота : 536 пикселей
Соотношение сторон : 2,40:1
Режим частоты кадров : Постоянный
Частота кадров : 24,000 кадра/сек
Цветовое пространство : YUV
Субдискретизация насыщенности : 4:2:0
Битовая глубина : 8 бит
Тип развёртки : Прогрессивная
Бит/(Пиксели*Кадры) : 0.247
Размер потока : 2,66 Гбайт (90%)
Заголовок : Main Program
Язык : Italian
Default : Да
Forced : Нет
Цветовой диапазон : Limited
Основные цвета : BT.709
Характеристики трансфера : BT.709
Коэффициенты матрицы : BT.709

Аудио
Идентификатор : 2
Формат : AC-3
Формат/Информация : Audio Coding 3
Коммерческое название : Dolby Digital
Идентификатор кодека : A_AC3
Продолжительность : 1 ч. 33 м.
Вид битрейта : Постоянный
Битрейт : 384 Кбит/сек
Каналы : 6 каналов
ChannelLayout : L R C LFE Ls Rs
Частота : 48,0 КГц
Частота кадров : 31,250 кадров/сек (1536 SPF)
Битовая глубина : 16 бит
Метод сжатия : С потерями
Размер потока : 257 Мбайт (8%)
Заголовок : Russian DUB from iTunes Russia DD 5.1
Язык : Russian
ServiceKind/String : Complete Main
Default : Да
Forced : Нет

Меню
00:00:00.000 : en:Глава 1
00:08:09.208 : en:Глава 2
00:16:56.458 : en:Глава 3
00:24:59.874 : en:Глава 4
00:33:51.915 : en:Глава 5
00:42:15.081 : en:Глава 6
00:51:03.789 : en:Глава 7
00:59:40.955 : en:Глава 8
01:07:59.663 : en:Глава 9
01:16:48.663 : en:Глава 10
01:24:27.329 : en:Глава 11

pb.wtf



Скачать Западня для дьявола через торрент https://i111.fastpic.ru/big/2020/0328/13/0c9929569a4f65ef36c39784f1b8eb13.jpg Скачать фильм Западня для дьявола через торрент бесплантно в хорошем качестве Описание: Страхи могут быть бессмысленными. Они способны портить жизнь тому, кто их испытывает. Но побороть страх не так просто, как может ... 10 10 3
Торрент: Зарегистрирован [2020-03-29 07:55] · скачан: 52 раз
Статус: √ проверено
Размер: 2.97 GB
Как cкачать? Как скачать Западня для дьявола через торрент | qTorrent

% Раздел Тема Автор DL S | L
Фильмы (WEB-DL 720p, 1080p) [ 3.29 GB ] Западня для дьявола / In the Trap [2019 WEB-DL 1080p] bober100 Скачать
2 | 0
Фильмы 2019-2020 [DVDrip, WEB-DLRip, HDrip] (DUB, MVO) [ 743 MB ] Западня для дьявола / In the Trap [2019 WEB-DLRip] bober100 Скачать
1 | 0
Фильмы 2019-2020 [DVDrip, WEB-DLRip, HDrip] (DUB, MVO) [ 1.45 GB ] Западня для дьявола / In the Trap [2019 WEB-DLRip] bober100 Скачать
1 | 0

28-11-2019 20:33  

Отключить всю рекламу на сайте

    Дорогой пользователь! Огромная просьба, поблагодарите релизера, оцените раздачу и оставьте свои комментарий, если Вы скачали Западня для дьявола через торрент бесплатно! Внесите свою лепту в развитие PiratBit!
    Комментировать посты могут только пользователи прошедшие не сложную регистрацию
    Показать сообщения:    

    Западня для дьявола через торрент
    Скачать бесплатно Западня для дьявола
    Западня для дьявола скачать торрент
    Западня для дьявола смотреть онлайн
    Cкачать фильм Западня для дьявола бесплатно
    Западня для дьявола скачать торрент в хорошем качестве
    Западня для дьявола смотреть онлайн бесплатно в хорошем качестве


    Вы не можете начинать темы
    Вы не можете отвечать на сообщения
    Вы не можете редактировать свои сообщения
    Вы не можете удалять свои сообщения
    Вы не можете голосовать в опросах
    Вы не можете прикреплять файлы к сообщениям
    Вы можете скачивать файлы