Ссылка на приватное зеркало нашего сайта всего за 1$. Внимание количество ограничено!!!

2 сезон

iTunes

1 сезон

1

2 сезон

2 сезон

iTunes

1 сезон

RePack

30

Ultimate

ВАЖНО

ИГРА 18+

pack

RePack

MK11
pack

Забери бонус

RePack

jed

!!Акция!!

Alien_Rage

RePack

fifa19

RePack

Assassins Creed: Odyssey

RePack

NEED FOR SPEED™ PAYBACK

4 сезон

9 сезон

Бесстыжие 9 сезон

Все сериалы

все сериалы на PB.wtf

RePack

FAR CRY 5
  

Temperance - Viridian - 2020/ FLAC/ image +.cue/ lossless/ Melodic Heavy Metal pb.wtf

Temperance - Viridian - 2020 через торрент pb.wtf

Размер: 358 MB | Добавлен: 7 мес. назад | Торрент скачан:4 раза
Скачать  

29-03-2020 10:23 Temperance - Viridian - 2020 Скачать торрент  


Temperance - Viridian


Год издания: 2020
Страна: Italy
Жанр: Melodic Heavy Metal
Продолжительность: 00:48:24
Лейбл издания: Radtone Music
Страна-выпуска диска: Japan
Номер по каталогу: RADC-142
Формат: FLAC
Битрейт аудио: Lossless
Тип рипа: image +.cue
Наличие сканов в содержимом раздачи: да


01. Mission Impossible (4:06)
02. I Am The Fire (4:06)
03. Start Another Round (4:10)
04. My Demons Can't Sleep (3:58)
05. Viridian (4:28)
06. Let It Beat (3:36)
07. Scent Of Dye (3:59)
08. The Cult Of Mystery (4:26)
09. Nanook (5:48)
10. Gaia (4:17)
11. Catch The Dream (1:49)
12. Lost In The Christmas Dream (3:40)

Код:

Exact Audio Copy V1.4 from 3. February 2020

EAC extraction logfile from 5. March 2020, 8:56

Temperance / Viridian

Used drive  : PIONEER DVD-RW  DVR-115D   Adapter: 1  ID: 0

Read mode               : Secure
Utilize accurate stream : Yes
Defeat audio cache      : Yes
Make use of C2 pointers : No

Read offset correction                      : 48
Overread into Lead-In and Lead-Out          : No
Fill up missing offset samples with silence : Yes
Delete leading and trailing silent blocks   : No
Null samples used in CRC calculations       : Yes
Used interface                              : Native Win32 interface for Win NT & 2000

Used output format              : User Defined Encoder
Selected bitrate                : 768 kBit/s
Quality                         : High
Add ID3 tag                     : No
Command line compressor         : C:\Program Files (x86)\Exact Audio Copy\FLAC\FLAC.EXE
Additional command line options : -6 -V -T "ARTIST=%artist%" -T "TITLE=%title%" -T "ALBUM=%albumtitle%" -T "DATE=%year%" -T "TRACKNUMBER=%tracknr%" -T "GENRE=%genre%" -T "COMMENT=%comment%" -T "BAND=%albuminterpret%" -T "ALBUMARTIST=%albuminterpret%" -T "COMPOSER=%composer%" %haslyrics%--tag-from-file=LYRICS="%lyricsfile%"%haslyrics% -T "DISCNUMBER=%cdnumber%" -T "TOTALDISCS=%totalcds%" -T "TOTALTRACKS=%numtracks%" %hascover%--picture="%coverfile%"%hascover% %source% -o %dest%

TOC of the extracted CD

     Track |   Start  |  Length  | Start sector | End sector
    ---------------------------------------------------------
        1  |  0:00.00 |  4:06.14 |         0    |    18463
        2  |  4:06.14 |  4:06.26 |     18464    |    36939
        3  |  8:12.40 |  4:10.00 |     36940    |    55689
        4  | 12:22.40 |  3:58.29 |     55690    |    73568
        5  | 16:20.69 |  4:27.43 |     73569    |    93636
        6  | 20:48.37 |  3:36.13 |     93637    |   109849
        7  | 24:24.50 |  3:58.74 |    109850    |   127773
        8  | 28:23.49 |  4:25.74 |    127774    |   147722
        9  | 32:49.48 |  5:47.45 |    147723    |   173792
       10  | 38:37.18 |  4:17.35 |    173793    |   193102
       11  | 42:54.53 |  1:49.33 |    193103    |   201310
       12  | 44:44.11 |  3:40.20 |    201311    |   217830

Range status and errors

Selected range

     Filename C:\Temperance - 2020 - Viridian [Radtone Music ‎– RADC-142]\Temperance - Viridian.wav

     Peak level 92.7 %
     Extraction speed 7.1 X
     Range quality 100.0 %
     Test CRC D01F4EAB
     Copy CRC D01F4EAB
     Copy OK

No errors occurred

AccurateRip summary

Track  1  not present in database
Track  2  not present in database
Track  3  not present in database
Track  4  not present in database
Track  5  not present in database
Track  6  not present in database
Track  7  not present in database
Track  8  not present in database
Track  9  not present in database
Track 10  not present in database
Track 11  not present in database
Track 12  not present in database

None of the tracks are present in the AccurateRip database

End of status report

Код:

REM GENRE "Heavy Metal"
REM DATE 2020
REM DISCID B40B580C
REM COMMENT "ExactAudioCopy v1.4"
PERFORMER "Temperance"
TITLE "Viridian "
REM COMPOSER ""
FILE "Temperance - Viridian.flac" WAVE
  TRACK 01 AUDIO
    TITLE "Mission Impossible"
    PERFORMER "Temperance"
    REM COMPOSER ""
    INDEX 01 00:00:00
  TRACK 02 AUDIO
    TITLE "  I Am The Fire"
    PERFORMER "Temperance"
    REM COMPOSER ""
    INDEX 01 04:06:14
  TRACK 03 AUDIO
    TITLE "Start Another Round"
    PERFORMER "Temperance"
    REM COMPOSER ""
    INDEX 01 08:12:40
  TRACK 04 AUDIO
    TITLE "  My Demons Can't Sleep"
    PERFORMER "Temperance"
    REM COMPOSER ""
    INDEX 01 12:22:40
  TRACK 05 AUDIO
    TITLE "Viridian"
    PERFORMER "Temperance"
    REM COMPOSER ""
    INDEX 01 16:20:69
  TRACK 06 AUDIO
    TITLE "Let It Beat"
    PERFORMER "Temperance"
    REM COMPOSER ""
    INDEX 01 20:48:37
  TRACK 07 AUDIO
    TITLE "Scent Of Dye"
    PERFORMER "Temperance"
    REM COMPOSER ""
    INDEX 01 24:24:50
  TRACK 08 AUDIO
    TITLE "The Cult Of Mystery"
    PERFORMER "Temperance"
    REM COMPOSER ""
    INDEX 01 28:23:49
  TRACK 09 AUDIO
    TITLE "Nanook"
    PERFORMER "Temperance"
    REM COMPOSER ""
    INDEX 01 32:49:48
  TRACK 10 AUDIO
    TITLE "Gaia"
    PERFORMER "Temperance"
    REM COMPOSER ""
    INDEX 01 38:37:18
  TRACK 11 AUDIO
    TITLE "Catch The Dream"
    PERFORMER "Temperance"
    REM COMPOSER ""
    INDEX 01 42:54:53
  TRACK 12 AUDIO
    TITLE "Lost In The Christmas Dream"
    PERFORMER "Temperance"
    REM COMPOSER ""
    INDEX 01 44:44:11






pb.wtf



Скачать Temperance - Viridian - 2020 через торрент https://i111.fastpic.ru/big/2020/0329/78/32f66bf28fcb8a12c8c5f749ae652178.png Скачать фильм Temperance - Viridian - 2020через торрент бесплантно в хорошем качестве Трэклист Mission Impossible (4:06) I Am The Fire (4:06) Start Another Round (4:10) My Demons Can't Sleep (3:58) ... 5 10 1
Торрент: Зарегистрирован [2020-03-29 10:23] · скачан: 4 раз
Статус: √ проверено
Размер: 358 MB
Как cкачать? Как скачать Temperance - Viridian - 2020 через торрент | qTorrent

28-11-2019 20:33  

Отключить всю рекламу на сайте

    Дорогой пользователь! Огромная просьба, поблагодарите релизера, оцените раздачу и оставьте свои комментарий, если Вы скачали Temperance - Viridian - 2020 через торрент бесплатно! Внесите свою лепту в развитие PiratBit!
    Комментировать посты могут только пользователи прошедшие не сложную регистрацию
    Показать сообщения:    

    Temperance - Viridian - 2020 через торрент
    Скачать бесплатно Temperance - Viridian - 2020
    Temperance - Viridian - 2020 скачать торрент
    Temperance - Viridian - 2020 смотреть онлайн
    Cкачать фильм Temperance - Viridian - 2020 бесплатно
    Temperance - Viridian - 2020 скачать торрент в хорошем качестве
    Temperance - Viridian - 2020 смотреть онлайн бесплатно в хорошем качестве


    Вы не можете начинать темы
    Вы не можете отвечать на сообщения
    Вы не можете редактировать свои сообщения
    Вы не можете удалять свои сообщения
    Вы не можете голосовать в опросах
    Вы не можете прикреплять файлы к сообщениям
    Вы можете скачивать файлы