Ссылка на приватное зеркало нашего сайта всего за 1$. Внимание количество ограничено!!!

2 сезон

iTunes

1 сезон

1

2 сезон

2 сезон

iTunes

1 сезон

RePack

30

Ultimate

ВАЖНО

ИГРА 18+

pack

RePack

MK11
pack

Забери бонус

RePack

jed

!!Акция!!

Alien_Rage

RePack

fifa19

RePack

Assassins Creed: Odyssey

RePack

NEED FOR SPEED™ PAYBACK

4 сезон

9 сезон

Бесстыжие 9 сезон

Все сериалы

все сериалы на PB.wtf

RePack

FAR CRY 5
  

Джентльмены / The Gentlemen (Гай Ричи) [2019, Боевик, комедия, криминал, WEB-DL 720p] MVO [HDRezka Studio] +2xAVO [Есарев, Яроцкий] pb.wtf

Джентльмены через торрент pb.wtf

Раздают: 2 [ 0 KB/s ]
Размер: 4.62 GB | Добавлен: 8 мес. назад | Торрент скачан:325 раз
Скачать  

29-03-2020 10:31 Джентльмены Скачать торрент  

Джентльмены | The Gentlemen
Год выпуска: 2019
Страна: США
Жанр: Боевик, комедия, криминал
Продолжительность: 01:53:15
Перевод:
Профессиональный (многоголосый) | HDRezka Studio
Авторский (одноголосый) | Есарев
Авторский (одноголосый) | Яроцкий
Субтитры: Русские (Forced, Full), английские (Full, SDH)

Режиссер: Гай Ричи

rating

В ролях: Мэттью МакКонахи, Чарли Ханнэм, Мишель Докери, Джереми Стронг, Лайн Рени, Колин Фаррелл, Генри Голдинг, Том Ву, Чиди Аджуфо, Хью Грант

Описание: Талантливый выпускник Оксфорда, применив свой уникальный ум и невиданную дерзость, придумал нелегальную схему обогащения с использованием поместья обедневшей английской аристократии. Однако когда он решает продать свой бизнес влиятельному клану миллиардеров из США, на его пути встают не менее обаятельные, но жесткие джентльмены. Намечается обмен любезностями, который точно не обойдется без перестрелок и парочки несчастных случаев.

Качество: WEB-DL 720p
Формат: MKV

Видео: MPEG-4 AVC, 3666 Kбит/с, 1248x520, 23.976 кадр/с
Аудио #1: Русский (АС3, 6 ch, 448 Кбит/с, 48.0 KHz) Профессиональный (многоголосый, закадровый) HDRezka Studio
Аудио #2: Русский (АС3, 6 ch, 448 Кбит/с, 48.0 KHz) Aвторский (одноголосый, закадровый) Дмитрий Есарев
Аудио #3: Русский (АС3, 6 ch, 640 Кбит/с, 48.0 KHz) Aвторский (одноголосый, закадровый) Михаил Яроцкий
Аудио #4: Английский (АС3, 6 ch, 640 Кбит/с, 48.0 KHz)
скриншот  скриншот  скриншот  скриншот  скриншот  

Источник: The.Gentlemen.2019.720p.AMZN.WEB-DL.DDP5.1.H.264-TEPES
General
Unique ID : 170596505620110121941213578507776848553 (0x8057B11D9DC8B811A125060741E672A9)
Complete name : The.Gentlemen.2020.AMZN.WEB-DL.720p.mkv
Format : Matroska
Format version : Version 4
File size : 4.62 GiB
Duration : 1 h 53 min
Overall bit rate : 5 845 kb/s
Encoded date : UTC 2020-03-29 16:52:29
Writing application : mkvmerge v7.1.0 ('Good Love') 64bit built on Jul 27 2014 13:06:55
Writing library : libebml v1.3.0 + libmatroska v1.4.1

Video
ID : 1
Format : AVC
Format/Info : Advanced Video Codec
Format profile : High@L3.1
Format settings : CABAC / 4 Ref Frames
Format settings, CABAC : Yes
Format settings, Reference fra : 4 frames
Codec ID : V_MPEG4/ISO/AVC
Duration : 1 h 53 min
Bit rate mode : Constant
Bit rate : 3 666 kb/s
Nominal bit rate : 6 000 kb/s
Width : 1 248 pixels
Height : 520 pixels
Display aspect ratio : 2.40:1
Frame rate mode : Constant
Frame rate : 23.976 (24000/1001) FPS
Color space : YUV
Chroma subsampling : 4:2:0
Bit depth : 8 bits
Scan type : Progressive
Bits/(Pixel*Frame) : 0.236
Stream size : 2.90 GiB (63%)
Language : English
Default : Yes
Forced : No
Color range : Limited
Color primaries : BT.709
Transfer characteristics : BT.709
Matrix coefficients : BT.709

Audio #1
ID : 2
Format : AC-3
Format/Info : Audio Coding 3
Commercial name : Dolby Digital
Codec ID : A_AC3
Duration : 1 h 53 min
Bit rate mode : Constant
Bit rate : 448 kb/s
Channel(s) : 6 channels
Channel layout : L R C LFE Ls Rs
Sampling rate : 48.0 kHz
Frame rate : 31.250 FPS (1536 SPF)
Compression mode : Lossy
Stream size : 363 MiB (8%)
Title : MVO | HDRezka Studio
Language : Russian
Service kind : Complete Main
Default : Yes
Forced : No

Audio #2
ID : 3
Format : AC-3
Format/Info : Audio Coding 3
Commercial name : Dolby Digital
Codec ID : A_AC3
Duration : 1 h 53 min
Bit rate mode : Constant
Bit rate : 448 kb/s
Channel(s) : 6 channels
Channel layout : L R C LFE Ls Rs
Sampling rate : 48.0 kHz
Frame rate : 31.250 FPS (1536 SPF)
Compression mode : Lossy
Stream size : 363 MiB (8%)
Title : AVO | Д. Есарев
Language : Russian
Service kind : Complete Main
Default : No
Forced : No

Audio #3
ID : 4
Format : AC-3
Format/Info : Audio Coding 3
Commercial name : Dolby Digital
Codec ID : A_AC3
Duration : 1 h 53 min
Bit rate mode : Constant
Bit rate : 640 kb/s
Channel(s) : 6 channels
Channel layout : L R C LFE Ls Rs
Sampling rate : 48.0 kHz
Frame rate : 31.250 FPS (1536 SPF)
Compression mode : Lossy
Stream size : 518 MiB (11%)
Title : AVO | Kyberpunk
Language : Russian
Service kind : Complete Main
Default : No
Forced : No

Audio #4
ID : 5
Format : AC-3
Format/Info : Audio Coding 3
Commercial name : Dolby Digital
Codec ID : A_AC3
Duration : 1 h 53 min
Bit rate mode : Constant
Bit rate : 640 kb/s
Channel(s) : 6 channels
Channel layout : L R C LFE Ls Rs
Sampling rate : 48.0 kHz
Frame rate : 31.250 FPS (1536 SPF)
Compression mode : Lossy
Stream size : 518 MiB (11%)
Language : English
Service kind : Complete Main
Default : No
Forced : No

Text #1
ID : 6
Format : UTF-8
Codec ID : S_TEXT/UTF8
Codec ID/Info : UTF-8 Plain Text
Duration : 1 h 45 min
Bit rate : 4 b/s
Count of elements : 46
Stream size : 3.37 KiB (0%)
Title : Forced
Language : Russian
Default : Yes
Forced : No

Text #2
ID : 7
Format : UTF-8
Codec ID : S_TEXT/UTF8
Codec ID/Info : UTF-8 Plain Text
Duration : 1 h 47 min
Bit rate : 145 b/s
Count of elements : 1874
Stream size : 115 KiB (0%)
Title : MENINSUB
Language : Russian
Default : No
Forced : No

Text #3
ID : 8
Format : UTF-8
Codec ID : S_TEXT/UTF8
Codec ID/Info : UTF-8 Plain Text
Duration : 1 h 47 min
Bit rate : 84 b/s
Count of elements : 1812
Stream size : 67.0 KiB (0%)
Language : English
Default : No
Forced : No

Text #4
ID : 9
Format : UTF-8
Codec ID : S_TEXT/UTF8
Codec ID/Info : UTF-8 Plain Text
Duration : 1 h 50 min
Bit rate : 94 b/s
Count of elements : 2088
Stream size : 76.8 KiB (0%)
Title : SDH
Language : English
Default : No
Forced : No

Menu
00:00:00.000 : en:Studio Logo
00:00:38.000 : en:Scene 2
00:01:00.000 : en:Opening Credits
00:01:19.000 : en:Scene 4
00:02:14.000 : en:Title Sequence
00:04:03.000 : en:Scene 6
00:13:19.000 : en:Scene 7
00:22:08.000 : en:Scene 8
00:28:52.000 : en:Scene 9
00:35:29.000 : en:Scene 10
00:39:20.000 : en:Scene 11
00:43:52.000 : en:Scene 12
00:55:51.000 : en:Scene 13
01:06:29.000 : en:Scene 14
01:11:48.000 : en:Scene 15
01:29:00.000 : en:Scene 16
01:38:51.000 : en:Scene 17
01:48:14.000 : en:End Credits

pb.wtf



Скачать Джентльмены через торрент http://b.radikal.ru/b10/2003/ae/66d497577af1.jpg Скачать фильм Джентльмены через торрент бесплантно в хорошем качестве Описание: Талантливый выпускник Оксфорда, применив свой уникальный ум и невиданную дерзость, придумал нелегальную схему обогащения с ... 10 10 8
Торрент: Зарегистрирован [2020-03-29 18:27] · скачан: 325 раз
Статус: √ проверено
Размер: 4.62 GB
Как cкачать? Как скачать Джентльмены через торрент | qTorrent

% Раздел Тема Автор DL S | L
Ultra HD (UHD: 2K, 4K, 8K) — видео сверхвысокой чёткости [ 53.19 GB ] Джентльмены / The Gentlemen [2019 UHD BDRemux 2160p] DUB bober100 Скачать
5 | 0
Официальные cаундтреки к зарубежным фильмам [ 106 MB ] OST - Джентльмены / The Gentlemen 2019 / MP3 / 320 kbps / Score bober100 Скачать
1 | 0
Фильмы 2019-2020 [DVDrip, WEB-DLRip, HDrip] (DUB, MVO) [ 2.82 GB ] Джентльмены / The Gentlemen [2019 WEB-DLRip-AVC] () + [AVO] killermax2013 Скачать
7 | 0
Фильмы (HD 720p, 1080p) (48-60 fps) [ 3.93 GB ] Джентльмены / The Gentlemen [2019 . BDRip 1080p / 60 FPS AVO Яроцкий] dd2d3 Скачать
2 | 0
Фильмы 2019-2020 [DVDrip, WEB-DLRip, HDrip] (DUB, MVO) [ 2.2 GB ] Джентльмены / The Gentlemen [2019 BDRip-AVC] Dub sokol_ok Скачать
361 | 6
Фильмы 2019-2020 [DVDrip, WEB-DLRip, HDrip] (DUB, MVO) [ 1.37 GB ] Джентльмены / The Gentlemen [2019 BDRip-AVC] Dub sokol_ok Скачать
132 | 1
Фильмы с авторской озвучкой [ 1.46 GB ] Джентльмены / The Gentlemen [2019 WEB-DLRip] [AVO] killermax2013 Скачать
4 | 0

28-11-2019 20:33  

Отключить всю рекламу на сайте

    Дорогой пользователь! Огромная просьба, поблагодарите релизера, оцените раздачу и оставьте свои комментарий, если Вы скачали Джентльмены через торрент бесплатно! Внесите свою лепту в развитие PiratBit!
    Комментировать посты могут только пользователи прошедшие не сложную регистрацию
    Показать сообщения:    

    Джентльмены через торрент
    Скачать бесплатно Джентльмены
    Джентльмены скачать торрент
    Джентльмены смотреть онлайн
    Cкачать фильм Джентльмены бесплатно
    Джентльмены скачать торрент в хорошем качестве
    Джентльмены смотреть онлайн бесплатно в хорошем качестве


    Вы не можете начинать темы
    Вы не можете отвечать на сообщения
    Вы не можете редактировать свои сообщения
    Вы не можете удалять свои сообщения
    Вы не можете голосовать в опросах
    Вы не можете прикреплять файлы к сообщениям
    Вы можете скачивать файлы