Ссылка на приватное зеркало нашего сайта всего за 1$. Внимание количество ограничено!!!

2 сезон

iTunes

1 сезон

1

2 сезон

2 сезон

iTunes

1 сезон

RePack

30

Ultimate

ВАЖНО

ИГРА 18+

pack

RePack

MK11
pack

Забери бонус

RePack

jed

!!Акция!!

Alien_Rage

RePack

fifa19

RePack

Assassins Creed: Odyssey

RePack

NEED FOR SPEED™ PAYBACK

4 сезон

9 сезон

Бесстыжие 9 сезон

Все сериалы

все сериалы на PB.wtf

RePack

FAR CRY 5
  

Зов предков / The Call of the Wild (Крис Сандерс) [2020, Драма, приключения, семейный, WEB-DL 1080p] DUB [iTunes] +MVO [HDRezka Studio] pb.wtf

Зов предков через торрент pb.wtf

Раздают: 1 [ 0 KB/s ]
Размер: 5.82 GB | Добавлен: 6 мес. назад | Торрент скачан:296 раз
Скачать  

30-03-2020 08:19 Зов предков Скачать торрент  

Зов предков | The Call of the Wild
Год выпуска: 2020
Страна: США, Канада
Студия: 3 Arts Entertainment, Twentieth Century Fox Animation, Twentieth Century
Жанр: Драма, приключения, семейный
Продолжительность: 01:40:24
Перевод:
#1: Дублированный | iTunes
#2: Профессиональный многоголосый | HDRezka Studio
Субтитры: Русские (Forced, full (iTunes), full (Enigma)), английские

Режиссер: Крис Сандерс

rating

В ролях: Харрисон Форд, Омар Си, Кара Ги, Дэн Стивенс, Брэдли Уитфорд, Джин Луиса Келли, Майкл Хорс, Карен Гиллан, Колин Вуделл, Мика Фицджералд

Описание: История Бака, дружелюбного пса, чья размеренная домашняя жизнь перевернулась с ног на голову во времена золотой лихорадки в 1880-х, когда его вырвали из дома в Калифорнии и перевезли в дикую и холодную Аляску. Будучи новичком в упряжке почтовой службы, а впоследствии лидером, Бак попадает в невероятное приключение, находит свое место в мире и становится хозяином своей жизни.

Качество: WEB-DL 1080p
Формат: MKV

Видео: MPEG-4 AVC, 1920x800, 6883 Kbit/s, 23.976 fps
Аудио #01: 48 kHz, AC3, 5.1, 384 Kbps | iTunes | RUS |
Аудио #02: 48 kHz, AC3, 5.1, 448 Kbps | HDRezka Studio | RUS |
Аудио #03: 48 kHz, E-AC3, 5.1, 640 Kbps | Оригинал | ENG |
скриншот  скриншот  скриншот  скриншот  скриншот  

General
Unique ID : 116289835743042715610937629419626965474 (0x577C9B9179E50BB3DEC07D116EFA29E2)
Complete name : E:Video111The.Call.of.the.Wild.2020.AMZN.WEB-DL.1080p.seleZen.mkv
Format : Matroska
Format version : Version 4
File size : 5.82 GiB
Duration : 1 h 39 min
Overall bit rate : 8 358 kb/s
Movie name : The Call of the Wild 2020 from селезень
Encoded date : UTC 2020-04-30 18:11:34
Writing application : mkvmerge v40.0.0 ('Old Town Road + Pony') 64-bit
Writing library : libebml v1.3.9 + libmatroska v1.5.2

Video
ID : 1
Format : AVC
Format/Info : Advanced Video Codec
Format profile : High@L4
Format settings : CABAC / 4 Ref Frames
Format settings, CABAC : Yes
Format settings, Reference : 4 frames
Codec ID : V_MPEG4/ISO/AVC
Duration : 1 h 39 min
Bit rate mode : Constant
Bit rate : 6 883 kb/s
Nominal bit rate : 10 000 kb/s
Width : 1 920 pixels
Height : 800 pixels
Display aspect ratio : 2.40:1
Frame rate mode : Constant
Frame rate : 23.976 (24000/1001) FPS
Color space : YUV
Chroma subsampling : 4:2:0
Bit depth : 8 bits
Scan type : Progressive
Bits/(Pixel*Frame) : 0.187
Stream size : 4.79 GiB (82%)
Language : English
Default : Yes
Forced : No
Color range : Limited
Color primaries : BT.709
Transfer characteristics : BT.709
Matrix coefficients : BT.709

Audio #1
ID : 2
Format : AC-3
Format/Info : Audio Coding 3
Commercial name : Dolby Digital
Codec ID : A_AC3
Duration : 1 h 39 min
Bit rate mode : Constant
Bit rate : 384 kb/s
Channel(s) : 6 channels
Channel layout : L R C LFE Ls Rs
Sampling rate : 48.0 kHz
Frame rate : 31.250 FPS (1536 SPF)
Compression mode : Lossy
Stream size : 274 MiB (5%)
Title : iTunes
Language : Russian
Service kind : Complete Main
Default : Yes
Forced : Yes

Audio #2
ID : 3
Format : AC-3
Format/Info : Audio Coding 3
Commercial name : Dolby Digital
Codec ID : A_AC3
Duration : 1 h 39 min
Bit rate mode : Constant
Bit rate : 448 kb/s
Channel(s) : 6 channels
Channel layout : L R C LFE Ls Rs
Sampling rate : 48.0 kHz
Frame rate : 31.250 FPS (1536 SPF)
Compression mode : Lossy
Stream size : 319 MiB (5%)
Title : MVO [HDrezka Studio]
Language : Russian
Service kind : Complete Main
Default : No
Forced : No

Audio #3
ID : 4
Format : E-AC-3
Format/Info : Enhanced AC-3
Commercial name : Dolby Digital Plus
Codec ID : A_EAC3
Duration : 1 h 39 min
Bit rate mode : Constant
Bit rate : 640 kb/s
Channel(s) : 6 channels
Channel layout : L R C LFE Ls Rs
Sampling rate : 48.0 kHz
Frame rate : 31.250 FPS (1536 SPF)
Compression mode : Lossy
Stream size : 456 MiB (8%)
Title : Original
Language : English
Service kind : Complete Main
Default : No
Forced : No

Text #1
ID : 5
Format : UTF-8
Codec ID : S_TEXT/UTF8
Codec ID/Info : UTF-8 Plain Text
Duration : 29 min 48 s
Bit rate : 2 b/s
Count of elements : 12
Stream size : 553 Bytes (0%)
Title : Forced v.2
Language : Russian
Default : No
Forced : No

Text #2
ID : 6
Format : UTF-8
Codec ID : S_TEXT/UTF8
Codec ID/Info : UTF-8 Plain Text
Duration : 1 h 38 min
Bit rate : 34 b/s
Count of elements : 765
Stream size : 24.7 KiB (0%)
Title : Full [iTunes]
Language : Russian
Default : No
Forced : No

Text #3
ID : 7
Format : UTF-8
Codec ID : S_TEXT/UTF8
Codec ID/Info : UTF-8 Plain Text
Duration : 1 h 38 min
Bit rate : 36 b/s
Count of elements : 815
Stream size : 26.7 KiB (0%)
Title : Full [Enigma]
Language : Russian
Default : No
Forced : No

Text #4
ID : 8
Format : UTF-8
Codec ID : S_TEXT/UTF8
Codec ID/Info : UTF-8 Plain Text
Duration : 1 h 38 min
Bit rate : 23 b/s
Count of elements : 805
Stream size : 17.0 KiB (0%)
Title : Full
Language : English
Default : No
Forced : No

Text #5
ID : 9
Format : UTF-8
Codec ID : S_TEXT/UTF8
Codec ID/Info : UTF-8 Plain Text
Duration : 1 h 39 min
Bit rate : 32 b/s
Count of elements : 1196
Stream size : 23.4 KiB (0%)
Title : SDH
Language : English
Default : No
Forced : No

Menu
00:00:00.000 : en:Studio Logo
00:00:48.000 : en:Buck is king
00:02:43.000 : en:Buck's behavior
00:04:12.000 : en:A turkey is ready
00:05:17.000 : en:Buck spends on the porch
00:07:14.000 : en:Locked in that box
00:09:55.000 : en:Skagway, Alaska
00:13:42.000 : en:Perrault finds Buck
00:14:52.000 : en:Buck joins the team
00:17:53.000 : en:Sleep in snow
00:20:31.000 : en:Doing the work of a sled dog
00:26:04.000 : en:Spitz is not pleased
00:32:21.000 : en:Who leads the team
00:36:23.000 : en:Buck finds a way
00:38:42.000 : en:What they carry
00:41:36.000 : en:John remembers Buck
00:43:27.000 : en:Buck loses his master
00:45:53.000 : en:New owner
00:48:59.000 : en:John heads to Buck
00:53:00.000 : en:John is at bar
00:57:41.000 : en:John talks about his son
01:02:07.000 : en:Adventure with Buck
01:05:09.000 : en:Hal comes to John's place
01:13:08.000 : en:Buck finds friends
01:17:12.000 : en:Buck still comes back to John
01:20:22.000 : en:John is leaving
01:23:36.000 : en:Buck comes back
01:29:15.000 : en:Buck becomes his own master
01:32:16.000 : en:End Credits

pb.wtf



Скачать Зов предков через торрент https://i111.fastpic.ru/big/2020/0430/10/26a17eaa692681b139c78b2220af6010.jpg Скачать фильм Зов предков через торрент бесплантно в хорошем качестве Описание: История Бака, дружелюбного пса, чья размеренная домашняя жизнь перевернулась с ног на голову во времена золотой лихорадки в ... 10 10 23
Торрент: Зарегистрирован [2020-04-30 19:36] · скачан: 296 раз
Статус: √ проверено
Размер: 5.82 GB
Как cкачать? Как скачать Зов предков через торрент | qTorrent

% Раздел Тема Автор DL S | L
Фильмы (HD 720p, 1080p) (48-60 fps) [ 2.71 GB ] Зов предков / The Call of the Wild [2020 BDRip - HEVC 1080p 10 bit 60 FPS] dd2d3 Скачать
4 | 0
Ultra HD (UHD: 2K, 4K, 8K) — видео сверхвысокой чёткости [ 10.46 GB ] Зов предков / The Call of the Wild [2020 UHD BDRip 2160p] +MVO [HDRezka Studio] bober100 Скачать
1 | 0
Ultra HD (UHD: 2K, 4K, 8K) — видео сверхвысокой чёткости [ 48.79 GB ] Зов предков / The Call of the Wild [2020 UHD BDRemux 2160p] +MVO [HDRezka Studio] bober100 Скачать
2 | 0
Фильмы [HD 720p, 1080p] (Хороший звук DUB, MVO) [ 9.11 GB ] Зов предков / The Call of the Wild [2020 BDRip 1080p] +MVO [HDRezka Studio] bober100 Скачать
1 | 0
Фильмы 2019-2020 [DVDrip, WEB-DLRip, HDrip] (DUB, MVO) [ 1.41 GB ] Зов предков / The Call of the Wild [2020 BDRip-AVC] bober100 Скачать
2 | 0
Фильмы 2019-2020 [DVDrip, WEB-DLRip, HDrip] (DUB, MVO) [ 1.42 GB ] Зов предков / The Call of the Wild [2020 BDRip] - Twi7ter Скачать
66 | 1
Фильмы 2019-2020 [DVDrip, WEB-DLRip, HDrip] (DUB, MVO) [ 2.85 GB ] Зов предков / The Call of the Wild [2020 BDRip-AVC] +MVO [HDRezka Studio] bober100 Скачать
3 | 0


Последний раз редактировалось: bober100 (2020-04-30 19:48), всего редактировалось 3 раз(а)

28-11-2019 20:33  

Отключить всю рекламу на сайте

    Дорогой пользователь! Огромная просьба, поблагодарите релизера, оцените раздачу и оставьте свои комментарий, если Вы скачали Зов предков через торрент бесплатно! Внесите свою лепту в развитие PiratBit!
    Комментировать посты могут только пользователи прошедшие не сложную регистрацию
    Показать сообщения:    

    Зов предков через торрент
    Скачать бесплатно Зов предков
    Зов предков скачать торрент
    Зов предков смотреть онлайн
    Cкачать фильм Зов предков бесплатно
    Зов предков скачать торрент в хорошем качестве
    Зов предков смотреть онлайн бесплатно в хорошем качестве


    Вы не можете начинать темы
    Вы не можете отвечать на сообщения
    Вы не можете редактировать свои сообщения
    Вы не можете удалять свои сообщения
    Вы не можете голосовать в опросах
    Вы не можете прикреплять файлы к сообщениям
    Вы можете скачивать файлы