Ссылка на приватное зеркало нашего сайта всего за 1$. Внимание количество ограничено!!!

2 сезон

iTunes

1 сезон

1

2 сезон

2 сезон

iTunes

1 сезон

RePack

30

Ultimate

ВАЖНО

ИГРА 18+

pack

RePack

MK11
pack

Забери бонус

RePack

jed

!!Акция!!

Alien_Rage

RePack

fifa19

RePack

Assassins Creed: Odyssey

RePack

NEED FOR SPEED™ PAYBACK

4 сезон

9 сезон

Бесстыжие 9 сезон

Все сериалы

все сериалы на PB.wtf

RePack

FAR CRY 5
  

Demons & Wizards - III - 2020/ FLAC/ image +.cue/ lossless/ Power Metal pb.wtf

Demons & Wizards - III - 2020 через торрент pb.wtf

Размер: 677 MB | Добавлен: 7 мес. назад | Торрент скачан:3 раза
Скачать  

30-03-2020 10:18 Demons & Wizards - III - 2020 Скачать торрент  


Demons & Wizards - III


Год издания: 2020
Страна: USA | Germany |
Жанр: Power Metal
Продолжительность: 01:17:59
Лейбл издания: Century Media
Страна-выпуска диска: EU
Номер по каталогу: 19439714752
Формат: FLAC
Битрейт аудио: Lossless
Тип рипа: image +.cue
Наличие сканов в содержимом раздачи: да


01. Diabolic (8:05)
02. Invincible (4:39)
03. Wolves In Winter (4:22)
04. Final Warning (3:50)
05. Timeless Spirit (9:22)
06. Dark Side Of Her Majesty (4:42)
07. Midas Disease (4:41)
08. New Dawn (4:27)
09. Universal Truth (5:09)
10. Split (6:06)
11. Children Of Cain (10:12)
12. Final Warning (Demo) (4:02)
13. Children Of Cain (Demo) (8:22)

Код:

Exact Audio Copy V1.5 from 20. February 2020

EAC extraction logfile from 4. March 2020, 9:15

Demons & Wizards / III (Japanese,SICP-6308)

Used drive  : PIONEER DVD-RW  DVR-221   Adapter: 1  ID: 0

Read mode               : Secure
Utilize accurate stream : Yes
Defeat audio cache      : Yes
Make use of C2 pointers : No

Read offset correction                      : 6
Overread into Lead-In and Lead-Out          : No
Fill up missing offset samples with silence : Yes
Delete leading and trailing silent blocks   : No
Null samples used in CRC calculations       : Yes
Used interface                              : Installed external ASPI interface

Used output format              : User Defined Encoder
Selected bitrate                : 1024 kBit/s
Quality                         : High
Add ID3 tag                     : No
Command line compressor         : C:\Program Files\Exact Audio Copy\FLAC\FLAC.EXE
Additional command line options : -V -8 -T "Date=%year%" -T "Genre=%genre%" -T "COMMENT=Ripped by" -8 -V %source%

TOC of the extracted CD

     Track |   Start  |  Length  | Start sector | End sector
    ---------------------------------------------------------
        1  |  0:00.00 |  8:04.56 |         0    |    36355
        2  |  8:04.56 |  4:38.68 |     36356    |    57273
        3  | 12:43.49 |  4:22.27 |     57274    |    76950
        4  | 17:06.01 |  3:50.29 |     76951    |    94229
        5  | 20:56.30 |  9:21.67 |     94230    |   136371
        6  | 30:18.22 |  4:42.37 |    136372    |   157558
        7  | 35:00.59 |  4:40.63 |    157559    |   178621
        8  | 39:41.47 |  4:26.62 |    178622    |   198633
        9  | 44:08.34 |  5:09.15 |    198634    |   221823
       10  | 49:17.49 |  6:06.26 |    221824    |   249299
       11  | 55:24.00 | 10:11.61 |    249300    |   295185
       12  | 65:35.61 |  4:01.39 |    295186    |   313299
       13  | 69:37.25 |  8:21.49 |    313300    |   350923

Range status and errors

Selected range

     Filename D:\Program Files\CD Images\Demons & Wizards - III 2020 (Japanese,SICP-6308) (Lossless\Demons & Wizards - III (Japanese,SICP-6308).wav

     Peak level 100.0 %
     Extraction speed 5.4 X
     Range quality 100.0 %
     Test CRC 1CCC2DC1
     Copy CRC 1CCC2DC1
     Copy OK

No errors occurred

AccurateRip summary

Track  1  not present in database
Track  2  not present in database
Track  3  not present in database
Track  4  not present in database
Track  5  not present in database
Track  6  not present in database
Track  7  not present in database
Track  8  not present in database
Track  9  not present in database
Track 10  not present in database
Track 11  not present in database
Track 12  not present in database
Track 13  not present in database

None of the tracks are present in the AccurateRip database

End of status report

Код:

REM GENRE "Heavy/Power Metal"
REM DATE 2020
REM DISCID C012460D
REM COMMENT "ExactAudioCopy v1.5"
PERFORMER "Demons & Wizards"
TITLE "III (Japanese,SICP-6308)"
REM COMPOSER ""
FILE "Demons & Wizards - III (Japanese,SICP-6308).flac" WAVE
  TRACK 01 AUDIO
    TITLE "Diabolic"
    PERFORMER "Demons & Wizards"
    REM COMPOSER ""
    INDEX 01 00:00:00
  TRACK 02 AUDIO
    TITLE "Invincible"
    PERFORMER "Demons & Wizards"
    REM COMPOSER ""
    INDEX 00 07:59:56
    INDEX 01 08:04:56
  TRACK 03 AUDIO
    TITLE "Wolves In Winter"
    PERFORMER "Demons & Wizards"
    REM COMPOSER ""
    INDEX 00 12:39:49
    INDEX 01 12:43:49
  TRACK 04 AUDIO
    TITLE "Final Warning"
    PERFORMER "Demons & Wizards"
    REM COMPOSER ""
    INDEX 00 17:02:01
    INDEX 01 17:06:01
  TRACK 05 AUDIO
    TITLE "Timeless Spirit"
    PERFORMER "Demons & Wizards"
    REM COMPOSER ""
    INDEX 00 20:52:30
    INDEX 01 20:56:30
  TRACK 06 AUDIO
    TITLE "Dark Side Of Her Majesty"
    PERFORMER "Demons & Wizards"
    REM COMPOSER ""
    INDEX 00 30:13:22
    INDEX 01 30:18:22
  TRACK 07 AUDIO
    TITLE "Midas Disease"
    PERFORMER "Demons & Wizards"
    REM COMPOSER ""
    INDEX 00 34:56:60
    INDEX 01 35:00:59
  TRACK 08 AUDIO
    TITLE "New Dawn"
    PERFORMER "Demons & Wizards"
    REM COMPOSER ""
    INDEX 00 39:37:47
    INDEX 01 39:41:47
  TRACK 09 AUDIO
    TITLE "Universal Truth"
    PERFORMER "Demons & Wizards"
    REM COMPOSER ""
    INDEX 00 44:04:34
    INDEX 01 44:08:34
  TRACK 10 AUDIO
    TITLE "Split"
    PERFORMER "Demons & Wizards"
    REM COMPOSER ""
    INDEX 00 49:13:49
    INDEX 01 49:17:49
  TRACK 11 AUDIO
    TITLE "Children Of Cain"
    PERFORMER "Demons & Wizards"
    REM COMPOSER ""
    INDEX 00 55:20:00
    INDEX 01 55:24:00
  TRACK 12 AUDIO
    TITLE "Final Warning (Demo)"
    PERFORMER "Demons & Wizards"
    REM COMPOSER ""
    INDEX 00 65:31:07
    INDEX 01 65:35:61
  TRACK 13 AUDIO
    TITLE "Children Of Cain (Demo)"
    PERFORMER "Demons & Wizards"
    REM COMPOSER ""
    INDEX 00 69:33:61
    INDEX 01 69:37:25






pb.wtf



Скачать Demons & Wizards - III - 2020 через торрент https://i111.fastpic.ru/big/2020/0330/3f/ee265b7458d1805116d8a884ccd4b73f.png Скачать фильм Demons & Wizards - III - 2020через торрент бесплантно в хорошем качестве Трэклист Diabolic (8:05) Invincible (4:39) Wolves In Winter (4:22) Final Warning (3:50) Timeless Spirit (9:22) ... 10 10 1
Торрент: Зарегистрирован [2020-03-30 10:18] · скачан: 3 раз
Статус: √ проверено
Размер: 677 MB
Как cкачать? Как скачать Demons & Wizards - III - 2020 через торрент | qTorrent

28-11-2019 20:33  

Отключить всю рекламу на сайте

    Дорогой пользователь! Огромная просьба, поблагодарите релизера, оцените раздачу и оставьте свои комментарий, если Вы скачали Demons & Wizards - III - 2020 через торрент бесплатно! Внесите свою лепту в развитие PiratBit!
    Комментировать посты могут только пользователи прошедшие не сложную регистрацию
    Показать сообщения:    

    Demons & Wizards - III - 2020 через торрент
    Скачать бесплатно Demons & Wizards - III - 2020
    Demons & Wizards - III - 2020 скачать торрент
    Demons & Wizards - III - 2020 смотреть онлайн
    Cкачать фильм Demons & Wizards - III - 2020 бесплатно
    Demons & Wizards - III - 2020 скачать торрент в хорошем качестве
    Demons & Wizards - III - 2020 смотреть онлайн бесплатно в хорошем качестве


    Вы не можете начинать темы
    Вы не можете отвечать на сообщения
    Вы не можете редактировать свои сообщения
    Вы не можете удалять свои сообщения
    Вы не можете голосовать в опросах
    Вы не можете прикреплять файлы к сообщениям
    Вы можете скачивать файлы