Доктор Стрэндж

Лицензия

Добыча

Дубляж

Уэнсдэй

1 сезон

Тор

Дубляж

В эфире

Дубляж

Там, где раки поют

MVO

Властелин колец

1 сезон

Deluxe

pack

Рекомендуем

30

Пиратка

ВАЖНО

ВАЖНО

Ghostwire

Пиратка

jed

RePack

nioh2

RePack

RDR2

RePack

NEED FOR SPEED™ PAYBACK

RePack

скачать торрент

Кинопоиск HD

Острые козырьки 6 сезон

6 сезон

FAR CRY 6

RePack

скачать торрент

Лицензия

скачать торрент

MVO

1

1 сезон

скачать торрент

1 сезон

скачать торрент

Лицензия

  

На Луне (Егор Кончаловский) [2020, Триллер, приключения, WEB-DLRip-AVC] [iTunes]

На Луне через торрент pb.wtf

Размер: 1.46 GB | Добавлен: 2 года 8 мес. назад | Торрент скачан:346 раз
Смотреть онлайн | Скачать   

30-03-2020 12:59 На Луне Скачать торрент  

На Луне
Год выпуска: 2020
Страна: Россия
Студия: Вертикаль
Жанр: Триллер, приключения
Продолжительность: 01:39:08
Перевод: Не требуется | iTunes
Субтитры: отсутствуют

Режиссер: Егор Кончаловский



В ролях: Иван Архангельский, Виталий Кищенко, Александр Балуев, Федор Бавтриков, Степан Лапин, Варвара Комарова, Сейдулла Молдаханов

Описание: Глеб, сын очень важного, обеспеченного и высокопоставленного господина, заслужил своими сомнительными подвигами на грани криминала репутацию сорвиголовы и беспредельщика. Однажды во время ночных гонок по улицам Москвы, уходя от преследования ГИБДД, Глеб не справился с управлением и сбил пешехода. Пока неприятности не улягутся, отец отсылает сына подальше в северные края, туда, где он любил охотиться еще в 90-е и где познакомился с отшельником, живущим в лесу. Именно у него и прячут Глеба. Для молодого человека начинается совершенно иная жизнь с крайне непредсказуемым, мрачным и молчаливым стариком.

Качество: WEB-DLRip-AVC
Формат: MKV

Видео: 1024x428 (2,40:1), 24 fps, MPEG-4 AVC, 1720 Кbps avg, 0.164 bit/pixel
Аудио: 48 kHz, AC3 Dolby Digital, 3/2 (L,C,R,l,r) + LFE ch, ~384 kbps
скриншот  скриншот  скриншот  скриншот  

Общее
Уникальный идентификатор : 225452079990832540549093817892389329207 (0xA99C7DBE7D0B0E0C2AFA915E08651937)
Полное имя : Na.Lune.2020.iT.WEB-DLRip.1.46Gb.x264.mkv
Формат : Matroska
Версия формата : Version 4
Размер файла : 1,46 Гбайт
Продолжительность : 1 ч. 39 м.
Общий поток : 2107 Кбит/сек
Название фильма : На луне (2020)
Дата кодирования : UTC 2020-03-30 08:28:00
Программа кодирования : mkvmerge v41.0.0 ('Smarra') 64-bit
Библиотека кодирования : libebml v1.3.9 + libmatroska v1.5.2
Обложка : Yes
Attachments : cover.png

Видео
Идентификатор : 1
Формат : AVC
Формат/Информация : Advanced Video Codec
Профиль формата : [email protected]
Настройки формата : CABAC / 10 Ref Frames
Параметр CABAC формата : Да
Параметр RefFrames формата : 10 кадров
Идентификатор кодека : V_MPEG4/ISO/AVC
Продолжительность : 1 ч. 39 м.
Битрейт : 1720 Кбит/сек
Ширина : 1024 пикселя
Высота : 428 пикселей
Соотношение сторон : 2,40:1
Режим частоты кадров : Постоянный
Частота кадров : 24,000 кадра/сек
Цветовое пространство : YUV
Субдискретизация насыщенности : 4:2:0
Битовая глубина : 8 бит
Тип развёртки : Прогрессивная
Бит/(Пиксели*Кадры) : 0.164
Размер потока : 1,19 Гбайт (82%)
Заголовок : #stillet
Библиотека кодирования : x264 core 152 r2851bm ba24899
Настройки программы : cabac=1 / ref=10 / deblock=1:-3:-3 / analyse=0x3:0x113 / me=umh / subme=11 / psy=1 / psy_rd=1.00:0.15 / mixed_ref=1 / me_range=32 / chroma_me=1 / trellis=2 / 8x8dct=1 / cqm=0 / deadzone=21,11 / fast_pskip=0 / chroma_qp_offset=-3 / threads=8 / lookahead_threads=3 / sliced_threads=0 / nr=0 / decimate=0 / interlaced=0 / bluray_compat=0 / constrained_intra=0 / bframes=10 / b_pyramid=2 / b_adapt=2 / b_bias=0 / direct=3 / weightb=1 / open_gop=0 / weightp=2 / keyint=240 / keyint_min=24 / scenecut=40 / intra_refresh=0 / rc=2pass / mbtree=0 / bitrate=1720 / ratetol=1.0 / qcomp=0.60 / qpmin=0 / qpmax=69 / qpstep=4 / cplxblur=20.0 / qblur=0.5 / ip_ratio=1.40 / pb_ratio=1.30 / aq=1:1.00
Язык : Russian
Default : Да
Forced : Нет

Аудио
Идентификатор : 2
Формат : AC-3
Формат/Информация : Audio Coding 3
Коммерческое название : Dolby Digital
Идентификатор кодека : A_AC3
Продолжительность : 1 ч. 39 м.
Вид битрейта : Постоянный
Битрейт : 384 Кбит/сек
Каналы : 6 каналов
ChannelLayout : L R C LFE Ls Rs
Частота : 48,0 КГц
Частота кадров : 31,250 кадров/сек (1536 SPF)
Метод сжатия : С потерями
Размер потока : 272 Мбайт (18%)
Заголовок : iTunes
Язык : Russian
Default : Да
Forced : Нет

Меню
00:00:00.000 : en:Глава 1
00:02:22.125 : en:Глава 2
00:08:44.583 : en:Глава 3
00:14:04.249 : en:Глава 4
00:19:54.207 : en:Глава 5
00:28:22.582 : en:Глава 6
00:35:52.290 : en:Глава 7
00:40:57.373 : en:Глава 8
00:46:44.539 : en:Глава 9
00:55:34.414 : en:Глава 10
01:03:24.080 : en:Глава 11
01:10:41.371 : en:Глава 12
01:18:30.162 : en:Глава 13
01:23:30.703 : en:Глава 14
01:33:01.869 : en:Глава 15




Скачать На Луне через торрент https://i6-imageban-ru.translate.goog/out/2020/03/30/58950f12a3cc9fc258dde8adf03b53f1.png Скачать, смотреть онлайн На Луне бесплантно в хорошем качестве Описание: Глеб, сын очень важного, обеспеченного и высокопоставленного господина, заслужил своими сомнительными подвигами на грани ... 10 10 9
Торрент: Зарегистрирован [2020-03-30 12:59] · скачан: 346 раз
Статус: √ проверено
Размер: 1.46 GB
Как cкачать? Как скачать На Луне через торрент | UTorrent

% Раздел Тема Автор DL S | L
Наши фильмы (HD, WEB-DL 720p, 1080p) [ 3.39 GB ] На Луне | iTunes | 1080p bober100 Скачать
2 | 0
Наши фильмы 2018-2019 [ 1.46 GB ] На Луне | iTunes | DLRip bober100 Скачать
1 | 0
Наши фильмы 2018-2019 [ 743 MB ] На Луне | iTunes | DLRip bober100 Скачать
1 | 0

28-11-2019 20:33  


Отключить вcю реклaмy на сайте, в т.ч. и в плеере онлайн просмотра!

    Дорогой пользователь! Огромная просьба, поблагодарите релизера, оцените раздачу и оставьте свои комментарий, если Вы скачали На Луне через торрент бесплатно!!
    Комментировать посты могут только пользователи прошедшие не сложную регистрацию
    Показать сообщения:    


    На Луне через торрент
    Скачать бесплатно На Луне
    На Луне скачать торрент
    На Луне смотреть онлайн
    Cкачать фильм На Луне бесплатно
    На Луне скачать торрент в хорошем качестве
    На Луне смотреть онлайн бесплатно в хорошем качестве
    Вы не можете начинать темы
    Вы не можете отвечать на сообщения
    Вы не можете редактировать свои сообщения
    Вы не можете удалять свои сообщения
    Вы не можете голосовать в опросах
    Вы не можете прикреплять файлы к сообщениям
    Вы можете скачивать файлы
    На Луне [2020, Триллер, приключения, WEB-DLRip-AVC] [iTunes] смотреть онлайн, скачать торрент picoco.icu