Ссылка на приватное зеркало нашего сайта всего за 1$. Внимание количество ограничено!!!

2 сезон

iTunes

1 сезон

1

2 сезон

2 сезон

iTunes

1 сезон

RePack

30

Ultimate

ВАЖНО

ИГРА 18+

pack

RePack

MK11
pack

Забери бонус

RePack

jed

!!Акция!!

Alien_Rage

RePack

fifa19

RePack

Assassins Creed: Odyssey

RePack

NEED FOR SPEED™ PAYBACK

4 сезон

9 сезон

Бесстыжие 9 сезон

Все сериалы

все сериалы на PB.wtf

RePack

FAR CRY 5
  

Маленькие женщины / Little Women (Грета Гервиг) [2019, Драма, мелодрама, BD Remux 1080p] DUB (rus, ukr) [Лицензия] pb.wtf

Маленькие женщины через торрент pb.wtf

Размер: 26.28 GB | Добавлен: 5 мес. 13 д. назад | Торрент скачан:19 раз
Скачать  

30-03-2020 15:36 Маленькие женщины Скачать торрент  

Маленькие женщины | Little Women
Год выпуска: 2019
Страна: США
Студия: Columbia Pictures, New Regency Pictures, Pascal Pictures
Жанр: Драма, мелодрама
Продолжительность: 02:14:54
Перевод: Дублированный | Лицензия
Субтитры: Русские (Forced, full), английские

Режиссер: Грета Гервиг

rating

В ролях: Сирша Ронан, Эмма Уотсон, Флоренс Пью, Элайза Сканлен, Лора Дерн, Тимоти Шаламе, Трэйси Леттс, Боб Оденкёрк, Джеймс Нортон, Луи Гаррель

Описание: Фильм рассказывает о взрослении четырех непохожих друг на друга сестер. Действие разворачивается во времена Гражданской войны в США, но проблемы, с которыми сталкиваются девушки, актуальны как никогда: первая любовь, горькое разочарование, томительная разлука и непростые поиски себя и своего места в жизни.

Качество: BD Remux 1080p
Формат: MKV

Видео: MPEG-4 AVC, 1920x1080, 24.9 Mbit/s, 23.976 fps
Аудио #01: 48 kHz, AC3, 5.1, 640 Kbps | Лицензия | RUS |
Аудио #02: 48 kHz, AAC, 2.0, 192 Kbps | Дублированный | UKR |
Аудио #03: 48 kHz, DTS-HD MA, 5.1, 2131 Kbps | Оригинал | ENG |
скриншот  скриншот  скриншот  скриншот  скриншот  

General
Unique ID : 90729859914949926515654436041977584983 (0x4441EF76C4F2ABF0413B25BACC355D57)
Complete name : E:\Video111\Little.Women.2019.Lic.BDREMUX.1080p.seleZen.mkv
Format : Matroska
Format version : Version 4
File size : 26.3 GiB
Duration : 2 h 14 min
Overall bit rate mode : Variable
Overall bit rate : 27.9 Mb/s
Movie name : Little Women 2019 from селезень
Encoded date : UTC 2020-06-12 19:27:00
Writing application : mkvmerge v40.0.0 ('Old Town Road + Pony') 64-bit
Writing library : libebml v1.3.9 + libmatroska v1.5.2

Video
ID : 1
Format : AVC
Format/Info : Advanced Video Codec
Format profile : High@L4.1
Format settings : CABAC / 2 Ref Frames
Format settings, CABAC : Yes
Format settings, Reference : 2 frames
Format settings, GOP : M=1, N=10
Codec ID : V_MPEG4/ISO/AVC
Duration : 2 h 14 min
Bit rate mode : Variable
Bit rate : 24.9 Mb/s
Width : 1 920 pixels
Height : 1 080 pixels
Display aspect ratio : 16:9
Frame rate mode : Constant
Frame rate : 23.976 (24000/1001) FPS
Color space : YUV
Chroma subsampling : 4:2:0
Bit depth : 8 bits
Scan type : Progressive
Bits/(Pixel*Frame) : 0.501
Stream size : 23.5 GiB (89%)
Language : English
Default : Yes
Forced : No

Audio #1
ID : 2
Format : AC-3
Format/Info : Audio Coding 3
Commercial name : Dolby Digital
Codec ID : A_AC3
Duration : 2 h 14 min
Bit rate mode : Constant
Bit rate : 640 kb/s
Channel(s) : 6 channels
Channel layout : L R C LFE Ls Rs
Sampling rate : 48.0 kHz
Frame rate : 31.250 FPS (1536 SPF)
Compression mode : Lossy
Stream size : 618 MiB (2%)
Title : Dub [License]
Language : Russian
Service kind : Complete Main
Default : Yes
Forced : Yes

Audio #2
ID : 3
Format : AC-3
Format/Info : Audio Coding 3
Commercial name : Dolby Digital
Codec ID : A_AC3
Duration : 2 h 14 min
Bit rate mode : Constant
Bit rate : 192 kb/s
Channel(s) : 2 channels
Channel layout : L R
Sampling rate : 48.0 kHz
Frame rate : 31.250 FPS (1536 SPF)
Compression mode : Lossy
Stream size : 185 MiB (1%)
Title : Dub
Language : Ukrainian
Service kind : Complete Main
Default : No
Forced : No

Audio #3
ID : 4
Format : DTS XLL
Format/Info : Digital Theater Systems
Commercial name : DTS-HD Master Audio
Codec ID : A_DTS
Duration : 2 h 14 min
Bit rate mode : Variable
Bit rate : 2 131 kb/s
Channel(s) : 6 channels
Channel layout : C L R Ls Rs LFE
Sampling rate : 48.0 kHz
Frame rate : 93.750 FPS (512 SPF)
Bit depth : 16 bits
Compression mode : Lossless
Stream size : 2.01 GiB (8%)
Title : Original
Language : English
Default : No
Forced : No

Text #1
ID : 5
Format : UTF-8
Codec ID : S_TEXT/UTF8
Codec ID/Info : UTF-8 Plain Text
Duration : 2 h 13 min
Bit rate : 0 b/s
Count of elements : 7
Stream size : 381 Bytes (0%)
Title : Forced
Language : Russian
Default : Yes
Forced : Yes

Text #2
ID : 6
Format : UTF-8
Codec ID : S_TEXT/UTF8
Codec ID/Info : UTF-8 Plain Text
Duration : 2 h 13 min
Bit rate : 89 b/s
Count of elements : 1730
Stream size : 87.4 KiB (0%)
Title : Full
Language : Russian
Default : No
Forced : No

Text #3
ID : 7
Format : UTF-8
Codec ID : S_TEXT/UTF8
Codec ID/Info : UTF-8 Plain Text
Duration : 2 h 5 min
Bit rate : 67 b/s
Count of elements : 1664
Stream size : 62.2 KiB (0%)
Title : Full
Language : English
Default : No
Forced : No

Text #4
ID : 8
Format : UTF-8
Codec ID : S_TEXT/UTF8
Codec ID/Info : UTF-8 Plain Text
Duration : 2 h 8 min
Bit rate : 70 b/s
Count of elements : 2143
Stream size : 66.0 KiB (0%)
Title : SDH
Language : English
Default : No
Forced : No

Menu
00:00:00.000 : en:Chapter 01
00:06:02.612 : en:Chapter 02
00:12:05.600 : en:Chapter 03
00:24:24.630 : en:Chapter 04
00:30:18.066 : en:Chapter 05
00:38:39.275 : en:Chapter 06
00:47:06.240 : en:Chapter 07
00:57:35.661 : en:Chapter 08
01:07:18.117 : en:Chapter 09
01:16:24.538 : en:Chapter 10
01:20:07.136 : en:Chapter 11
01:25:45.349 : en:Chapter 12
01:29:35.328 : en:Chapter 13
01:39:53.696 : en:Chapter 14
01:49:37.488 : en:Chapter 15
02:06:21.449 : en:Chapter 16

pb.wtf



Скачать Маленькие женщины через торрент https://img10.lostpic.net/2020/03/04/32e8e9da38adac5248f056b4be3c6fae.jpg Скачать фильм Маленькие женщины через торрент бесплантно в хорошем качестве Описание: Фильм рассказывает о взрослении четырех непохожих друг на друга сестер. Действие разворачивается во времена Гражданской войны в ... 8.8 10 4
Info! Серебряная раздача, засчитывается только 50% скачанного.
Торрент: Зарегистрирован [2020-06-12 19:45] · скачан: 19 раз
Статус: √ проверено
Размер: 26.28 GB
Как cкачать? Как скачать Маленькие женщины через торрент | qTorrent

% Раздел Тема Автор DL S | L
Фильмы 2019-2020 [DVDrip, WEB-DLRip, HDrip] (DUB, MVO) [ 797 MB ] Маленькие женщины / Little Women [2019 HDRip] DUB [] bober100 Скачать
1 | 0
Фильмы 2019-2020 [DVDrip, WEB-DLRip, HDrip] (DUB, MVO) [ 1.46 GB ] Маленькие женщины / Little Women [2019 BDRip-AVC] DUB [] bober100 Скачать
1 | 0
Фильмы 2019-2020 [DVDrip, WEB-DLRip, HDrip] (DUB, MVO) [ 2.9 GB ] Маленькие женщины / Little Women [2019 BDRip-AVC] DUB [] bober100 Скачать
1 | 0
Фильмы (Blu-ray, BD-Remux, HDDVD) [ 39.4 GB ] Маленькие женщины / Little Women [2019 Blu-Ray EUR 1080p] DUB [] bober100 Скачать
1 | 0
Фильмы 2019-2020 [DVDrip, WEB-DLRip, HDrip] (DUB, MVO) [ 2.21 GB ] Маленькие женщины / Little Women [2019 BDRip] - [] Twi7ter Скачать
6 | 0
Фильмы 2019-2020 [DVDrip, WEB-DLRip, HDrip] (DUB, MVO) [ 1.49 GB ] Маленькие женщины / Little Women [2019 BDRip] - [] Twi7ter Скачать
21 | 0
Фильмы [HD 720p, 1080p] (Хороший звук DUB, MVO) [ 6.49 GB ] Маленькие женщины / Little Women [2019 BDRip 720p] DUB [] bober100 Скачать
1 | 0

28-11-2019 20:33  

Отключить всю рекламу на сайте

    Дорогой пользователь! Огромная просьба, поблагодарите релизера, оцените раздачу и оставьте свои комментарий, если Вы скачали Маленькие женщины через торрент бесплатно! Внесите свою лепту в развитие PiratBit!
    Комментировать посты могут только пользователи прошедшие не сложную регистрацию
    Показать сообщения:    

    Маленькие женщины через торрент
    Скачать бесплатно Маленькие женщины
    Маленькие женщины скачать торрент
    Маленькие женщины смотреть онлайн
    Cкачать фильм Маленькие женщины бесплатно
    Маленькие женщины скачать торрент в хорошем качестве
    Маленькие женщины смотреть онлайн бесплатно в хорошем качестве


    Вы не можете начинать темы
    Вы не можете отвечать на сообщения
    Вы не можете редактировать свои сообщения
    Вы не можете удалять свои сообщения
    Вы не можете голосовать в опросах
    Вы не можете прикреплять файлы к сообщениям
    Вы можете скачивать файлы